  0
SECTION
  2
HEADER
  9
$ACADVER
  1
AC1015
  9
$ACADMAINTVER
 70
     6
  9
$DWGCODEPAGE
  3
ANSI_1252
  9
$INSBASE
 10
0.0
 20
0.0
 30
0.0
  9
$EXTMIN
 10
-174.612058054971
 20
2.56469422423555
 30
0.0
  9
$EXTMAX
 10
-132.612058054971
 20
61.96469422423558
 30
0.0
  9
$LIMMIN
 10
0.0
 20
0.0
  9
$LIMMAX
 10
12.0
 20
9.0
  9
$ORTHOMODE
 70
     0
  9
$REGENMODE
 70
     1
  9
$FILLMODE
 70
     1
  9
$QTEXTMODE
 70
     0
  9
$MIRRTEXT
 70
     1
  9
$LTSCALE
 40
1.0
  9
$ATTMODE
 70
     1
  9
$TEXTSIZE
 40
0.2
  9
$TRACEWID
 40
0.05
  9
$TEXTSTYLE
  7
Standard
  9
$CLAYER
  8
0
  9
$CELTYPE
  6
ByLayer
  9
$CECOLOR
 62
   256
  9
$CELTSCALE
 40
1.0
  9
$DISPSILH
 70
     0
  9
$DIMSCALE
 40
1.0
  9
$DIMASZ
 40
0.18
  9
$DIMEXO
 40
0.0625
  9
$DIMDLI
 40
0.38
  9
$DIMRND
 40
0.0
  9
$DIMDLE
 40
0.0
  9
$DIMEXE
 40
0.18
  9
$DIMTP
 40
0.0
  9
$DIMTM
 40
0.0
  9
$DIMTXT
 40
0.18
  9
$DIMCEN
 40
0.09
  9
$DIMTSZ
 40
0.0
  9
$DIMTOL
 70
     0
  9
$DIMLIM
 70
     0
  9
$DIMTIH
 70
     1
  9
$DIMTOH
 70
     1
  9
$DIMSE1
 70
     0
  9
$DIMSE2
 70
     0
  9
$DIMTAD
 70
     0
  9
$DIMZIN
 70
     0
  9
$DIMBLK
  1

  9
$DIMASO
 70
     1
  9
$DIMSHO
 70
     1
  9
$DIMPOST
  1

  9
$DIMAPOST
  1

  9
$DIMALT
 70
     0
  9
$DIMALTD
 70
     2
  9
$DIMALTF
 40
25.4
  9
$DIMLFAC
 40
1.0
  9
$DIMTOFL
 70
     0
  9
$DIMTVP
 40
0.0
  9
$DIMTIX
 70
     0
  9
$DIMSOXD
 70
     0
  9
$DIMSAH
 70
     0
  9
$DIMBLK1
  1

  9
$DIMBLK2
  1

  9
$DIMSTYLE
  2
Standard
  9
$DIMCLRD
 70
     0
  9
$DIMCLRE
 70
     0
  9
$DIMCLRT
 70
     0
  9
$DIMTFAC
 40
1.0
  9
$DIMGAP
 40
0.09
  9
$DIMJUST
 70
     0
  9
$DIMSD1
 70
     0
  9
$DIMSD2
 70
     0
  9
$DIMTOLJ
 70
     1
  9
$DIMTZIN
 70
     0
  9
$DIMALTZ
 70
     0
  9
$DIMALTTZ
 70
     0
  9
$DIMUPT
 70
     0
  9
$DIMDEC
 70
     4
  9
$DIMTDEC
 70
     4
  9
$DIMALTU
 70
     2
  9
$DIMALTTD
 70
     2
  9
$DIMTXSTY
  7
Standard
  9
$DIMAUNIT
 70
     0
  9
$DIMADEC
 70
     0
  9
$DIMALTRND
 40
0.0
  9
$DIMAZIN
 70
     0
  9
$DIMDSEP
 70
    46
  9
$DIMATFIT
 70
     3
  9
$DIMFRAC
 70
     0
  9
$DIMLDRBLK
  1

  9
$DIMLUNIT
 70
     2
  9
$DIMLWD
 70
    -2
  9
$DIMLWE
 70
    -2
  9
$DIMTMOVE
 70
     0
  9
$LUNITS
 70
     2
  9
$LUPREC
 70
     4
  9
$SKETCHINC
 40
0.1
  9
$FILLETRAD
 40
0.5
  9
$AUNITS
 70
     0
  9
$AUPREC
 70
     0
  9
$MENU
  1
.
  9
$ELEVATION
 40
0.0
  9
$PELEVATION
 40
0.0
  9
$THICKNESS
 40
0.0
  9
$LIMCHECK
 70
     0
  9
$CHAMFERA
 40
0.5
  9
$CHAMFERB
 40
0.5
  9
$CHAMFERC
 40
1.0
  9
$CHAMFERD
 40
0.0
  9
$SKPOLY
 70
     0
  9
$TDCREATE
 40
2456330.424387697
  9
$TDUCREATE
 40
2456330.38272103
  9
$TDUPDATE
 40
2456330.424387708
  9
$TDUUPDATE
 40
2456330.382721042
  9
$TDINDWG
 40
0.0000000116
  9
$TDUSRTIMER
 40
0.0000000116
  9
$USRTIMER
 70
     1
  9
$ANGBASE
 50
0.0
  9
$ANGDIR
 70
     0
  9
$PDMODE
 70
     0
  9
$PDSIZE
 40
0.0
  9
$PLINEWID
 40
0.0
  9
$SPLFRAME
 70
     0
  9
$SPLINETYPE
 70
     6
  9
$SPLINESEGS
 70
     8
  9
$HANDSEED
  5
1E1
  9
$SURFTAB1
 70
     6
  9
$SURFTAB2
 70
     6
  9
$SURFTYPE
 70
     6
  9
$SURFU
 70
     6
  9
$SURFV
 70
     6
  9
$UCSBASE
  2

  9
$UCSNAME
  2

  9
$UCSORG
 10
0.0
 20
0.0
 30
0.0
  9
$UCSXDIR
 10
1.0
 20
0.0
 30
0.0
  9
$UCSYDIR
 10
0.0
 20
1.0
 30
0.0
  9
$UCSORTHOREF
  2

  9
$UCSORTHOVIEW
 70
     0
  9
$UCSORGTOP
 10
0.0
 20
0.0
 30
0.0
  9
$UCSORGBOTTOM
 10
0.0
 20
0.0
 30
0.0
  9
$UCSORGLEFT
 10
0.0
 20
0.0
 30
0.0
  9
$UCSORGRIGHT
 10
0.0
 20
0.0
 30
0.0
  9
$UCSORGFRONT
 10
0.0
 20
0.0
 30
0.0
  9
$UCSORGBACK
 10
0.0
 20
0.0
 30
0.0
  9
$PUCSBASE
  2

  9
$PUCSNAME
  2

  9
$PUCSORG
 10
0.0
 20
0.0
 30
0.0
  9
$PUCSXDIR
 10
1.0
 20
0.0
 30
0.0
  9
$PUCSYDIR
 10
0.0
 20
1.0
 30
0.0
  9
$PUCSORTHOREF
  2

  9
$PUCSORTHOVIEW
 70
     0
  9
$PUCSORGTOP
 10
0.0
 20
0.0
 30
0.0
  9
$PUCSORGBOTTOM
 10
0.0
 20
0.0
 30
0.0
  9
$PUCSORGLEFT
 10
0.0
 20
0.0
 30
0.0
  9
$PUCSORGRIGHT
 10
0.0
 20
0.0
 30
0.0
  9
$PUCSORGFRONT
 10
0.0
 20
0.0
 30
0.0
  9
$PUCSORGBACK
 10
0.0
 20
0.0
 30
0.0
  9
$USERI1
 70
     0
  9
$USERI2
 70
     0
  9
$USERI3
 70
     0
  9
$USERI4
 70
     0
  9
$USERI5
 70
     0
  9
$USERR1
 40
18.0
  9
$USERR2
 40
0.0
  9
$USERR3
 40
0.0
  9
$USERR4
 40
0.0
  9
$USERR5
 40
0.0
  9
$WORLDVIEW
 70
     1
  9
$SHADEDGE
 70
     3
  9
$SHADEDIF
 70
    70
  9
$TILEMODE
 70
     1
  9
$MAXACTVP
 70
    64
  9
$PINSBASE
 10
0.0
 20
0.0
 30
0.0
  9
$PLIMCHECK
 70
     0
  9
$PEXTMIN
 10
1.00000000000000E+20
 20
1.00000000000000E+20
 30
1.00000000000000E+20
  9
$PEXTMAX
 10
-1.00000000000000E+20
 20
-1.00000000000000E+20
 30
-1.00000000000000E+20
  9
$PLIMMIN
 10
0.0
 20
0.0
  9
$PLIMMAX
 10
12.0
 20
9.0
  9
$UNITMODE
 70
     0
  9
$VISRETAIN
 70
     1
  9
$PLINEGEN
 70
     0
  9
$PSLTSCALE
 70
     1
  9
$TREEDEPTH
 70
  3020
  9
$CMLSTYLE
  2
Standard
  9
$CMLJUST
 70
     0
  9
$CMLSCALE
 40
1.0
  9
$PROXYGRAPHICS
 70
     1
  9
$MEASUREMENT
 70
     1
  9
$CELWEIGHT
370
    -1
  9
$ENDCAPS
280
     0
  9
$JOINSTYLE
280
     0
  9
$LWDISPLAY
290
     0
  9
$INSUNITS
 70
     1
  9
$HYPERLINKBASE
  1

  9
$STYLESHEET
  1

  9
$XEDIT
290
     1
  9
$CEPSNTYPE
380
     0
  9
$PSTYLEMODE
290
     1
  9
$FINGERPRINTGUID
  2
{CD40185C-FE47-4038-A78F-24DE905903FC}
  9
$VERSIONGUID
  2
{FAEB1C32-E019-11D5-929B-00C0DF256EC4}
  9
$EXTNAMES
290
     1
  9
$PSVPSCALE
 40
0.0
  9
$OLESTARTUP
290
     0
  0
ENDSEC
  0
SECTION
  2
CLASSES
  0
CLASS
  1
ACDBDICTIONARYWDFLT
  2
AcDbDictionaryWithDefault
  3
ObjectDBX Classes
 90
        0
280
     0
281
     0
  0
CLASS
  1
VISUALSTYLE
  2
AcDbVisualStyle
  3
ObjectDBX Classes
 90
     4095
280
     0
281
     0
  0
CLASS
  1
MATERIAL
  2
AcDbMaterial
  3
ObjectDBX Classes
 90
     1153
280
     0
281
     0
  0
CLASS
  1
SCALE
  2
AcDbScale
  3
ObjectDBX Classes
 90
     1153
280
     0
281
     0
  0
CLASS
  1

  2
exOdDbSpline
  3

 90
        0
280
     0
281
     1
  0
CLASS
  1
DICTIONARYVAR
  2
AcDbDictionaryVar
  3
ObjectDBX Classes
 90
        0
280
     0
281
     0
  0
CLASS
  1
ACDBPLACEHOLDER
  2
AcDbPlaceHolder
  3
ObjectDBX Classes
 90
        0
280
     0
281
     0
  0
CLASS
  1
LAYOUT
  2
AcDbLayout
  3
ObjectDBX Classes
 90
        0
280
     0
281
     0
  0
ENDSEC
  0
SECTION
  2
TABLES
  0
TABLE
  2
VPORT
  5
8
330
0
100
AcDbSymbolTable
 70
     1
  0
VPORT
  5
29
330
8
100
AcDbSymbolTableRecord
100
AcDbViewportTableRecord
  2
*Active
 70
     0
 10
0.0
 20
0.0
 11
1.0
 21
1.0
 12
-153.612058054971
 22
32.26469422423556
 13
0.0
 23
0.0
 14
0.5
 24
0.5
 15
0.5
 25
0.5
 16
0.0
 26
0.0
 36
1.0
 17
0.0
 27
0.0
 37
0.0
 40
65.34000000000003
 41
1.60267857142857
 42
50.0
 43
0.0
 44
0.0
 50
0.0
 51
0.0
 71
     0
 72
   100
 73
     1
 74
     3
 75
     0
 76
     0
 77
     0
 78
     0
281
     0
 65
     1
110
0.0
120
0.0
130
0.0
111
1.0
121
0.0
131
0.0
112
0.0
122
1.0
132
0.0
 79
     0
146
0.0
  0
ENDTAB
  0
TABLE
  2
LTYPE
  5
5
330
0
100
AcDbSymbolTable
 70
     8
  0
LTYPE
  5
14
330
5
100
AcDbSymbolTableRecord
100
AcDbLinetypeTableRecord
  2
ByBlock
 70
     0
  3

 72
    65
 73
     0
 40
0.0
  0
LTYPE
  5
15
330
5
100
AcDbSymbolTableRecord
100
AcDbLinetypeTableRecord
  2
ByLayer
 70
     0
  3

 72
    65
 73
     0
 40
0.0
  0
LTYPE
  5
16
330
5
100
AcDbSymbolTableRecord
100
AcDbLinetypeTableRecord
  2
Continuous
 70
     0
  3
Solid line
 72
    65
 73
     0
 40
0.0
  0
LTYPE
  5
3F
330
5
100
AcDbSymbolTableRecord
100
AcDbLinetypeTableRecord
  2
DASHED
 70
     0
  3
Dashed
 72
    65
 73
     2
 40
15.0
 49
7.0
 74
     0
 49
-8.0
 74
     0
  0
LTYPE
  5
40
330
5
100
AcDbSymbolTableRecord
100
AcDbLinetypeTableRecord
  2
DOTTED
 70
     0
  3
Dotted
 72
    65
 73
     2
 40
1.0
 49
0.0
 74
     0
 49
-1.0
 74
     0
  0
LTYPE
  5
41
330
5
100
AcDbSymbolTableRecord
100
AcDbLinetypeTableRecord
  2
DOT_CENTER
 70
     0
  3
Dot_Center
 72
    65
 73
     4
 40
14.0
 49
12.0
 74
     0
 49
-1.0
 74
     0
 49
0.0
 74
     0
 49
-1.0
 74
     0
  0
LTYPE
  5
42
330
5
100
AcDbSymbolTableRecord
100
AcDbLinetypeTableRecord
  2
LONG_DASHED
 70
     0
  3
Long_Dashed
 72
    65
 73
     2
 40
15.0
 49
10.0
 74
     0
 49
-5.0
 74
     0
  0
LTYPE
  5
43
330
5
100
AcDbSymbolTableRecord
100
AcDbLinetypeTableRecord
  2
DASH_CENTER
 70
     0
  3
Dash_Center
 72
    65
 73
     4
 40
14.0
 49
11.0
 74
     0
 49
-1.0
 74
     0
 49
1.0
 74
     0
 49
-1.0
 74
     0
  0
LTYPE
  5
44
330
5
100
AcDbSymbolTableRecord
100
AcDbLinetypeTableRecord
  2
PHANTOM
 70
     0
  3
Phantom
 72
    65
 73
     6
 40
13.0
 49
10.0
 74
     0
 49
-1.0
 74
     0
 49
0.0
 74
     0
 49
-1.0
 74
     0
 49
0.0
 74
     0
 49
-1.0
 74
     0
  0
LTYPE
  5
45
330
5
100
AcDbSymbolTableRecord
100
AcDbLinetypeTableRecord
  2
CENTER_DASH_DASH
 70
     0
  3
Center_Dash_Dash
 72
    65
 73
     6
 40
14.0
 49
9.0
 74
     0
 49
-1.0
 74
     0
 49
1.0
 74
     0
 49
-1.0
 74
     0
 49
1.0
 74
     0
 49
-1.0
 74
     0
  0
ENDTAB
  0
TABLE
  2
LAYER
  5
2
330
0
100
AcDbSymbolTable
 70
     2
  0
LAYER
  5
10
330
2
100
AcDbSymbolTableRecord
100
AcDbLayerTableRecord
  2
0
 70
     0
 62
     7
  6
Continuous
370
    -3
390
F
  0
LAYER
  5
46
330
2
100
AcDbSymbolTableRecord
100
AcDbLayerTableRecord
  2
1
 70
     0
 62
     7
  6
Continuous
370
    -3
390
F
  0
ENDTAB
  0
TABLE
  2
STYLE
  5
3
330
0
100
AcDbSymbolTable
 70
     4
  0
STYLE
  5
11
330
3
100
AcDbSymbolTableRecord
100
AcDbTextStyleTableRecord
  2
Standard
 70
     0
 40
0.0
 41
1.0
 50
0.0
 71
     0
 42
0.2
  3
txt
  4

  0
STYLE
  5
BD
330
3
100
AcDbSymbolTableRecord
100
AcDbTextStyleTableRecord
  2
CONVERTER_11
 70
     0
 40
0.0
 41
1.2
 50
0.0
 71
     0
 42
0.2
  3
ARIAL.TTF
  4

  0
STYLE
  5
C2
330
3
100
AcDbSymbolTableRecord
100
AcDbTextStyleTableRecord
  2
CONVERTER_12
 70
     0
 40
0.0
 41
1.38
 50
0.0
 71
     0
 42
0.2
  3
ARIAL.TTF
  4

  0
STYLE
  5
199
330
3
100
AcDbSymbolTableRecord
100
AcDbTextStyleTableRecord
  2
CONVERTER_13
 70
     0
 40
0.0
 41
0.95
 50
0.0
 71
     0
 42
0.2
  3
simplex.shx
  4

  0
ENDTAB
  0
TABLE
  2
VIEW
  5
6
330
0
100
AcDbSymbolTable
 70
     0
  0
ENDTAB
  0
TABLE
  2
UCS
  5
7
330
0
100
AcDbSymbolTable
 70
     0
  0
ENDTAB
  0
TABLE
  2
APPID
  5
9
330
0
100
AcDbSymbolTable
 70
     1
  0
APPID
  5
12
330
9
100
AcDbSymbolTableRecord
100
AcDbRegAppTableRecord
  2
ACAD
 70
     0
  0
ENDTAB
  0
TABLE
  2
DIMSTYLE
  5
A
330
0
100
AcDbSymbolTable
 70
     4
100
AcDbDimStyleTable
  0
DIMSTYLE
105
27
330
A
100
AcDbSymbolTableRecord
100
AcDbDimStyleTableRecord
  2
Standard
 70
     0
340
11
  0
DIMSTYLE
105
19D
102
{ACAD_REACTORS
330
19E
102
}
330
A
100
AcDbSymbolTableRecord
100
AcDbDimStyleTableRecord
  2
ME10_DIM_10
 70
     0
 41
0.6
 42
0.1
 44
0.2
 73
     0
 74
     0
 77
     1
 78
     8
140
0.6
147
0.4
172
     1
173
     1
174
     1
175
     1
176
     2
177
     2
178
     4
271
     2
340
199
  0
DIMSTYLE
105
1A8
102
{ACAD_REACTORS
330
1A9
102
}
330
A
100
AcDbSymbolTableRecord
100
AcDbDimStyleTableRecord
  2
ME10_DIM_11
 70
     0
 41
0.6
 42
0.1
 44
0.2
 73
     0
 74
     0
 77
     1
 78
     8
140
0.6
147
0.4
172
     1
173
     1
174
     1
175
     1
176
     2
177
     2
178
     4
271
     2
340
199
  0
DIMSTYLE
105
1B3
102
{ACAD_REACTORS
330
1B4
102
}
330
A
100
AcDbSymbolTableRecord
100
AcDbDimStyleTableRecord
  2
ME10_DIM_12
 70
     0
 41
0.6
 42
0.1
 44
0.2
 73
     0
 74
     0
 77
     1
 78
     8
140
0.6
147
0.4
172
     1
173
     1
174
     1
175
     1
176
     2
177
     2
178
     4
271
     2
340
199
  0
ENDTAB
  0
TABLE
  2
BLOCK_RECORD
  5
1
330
0
100
AcDbSymbolTable
 70
     6
  0
BLOCK_RECORD
  5
1F
330
1
100
AcDbSymbolTableRecord
100
AcDbBlockTableRecord
  2
*Model_Space
340
22
  0
BLOCK_RECORD
  5
1B
330
1
100
AcDbSymbolTableRecord
100
AcDbBlockTableRecord
  2
*Paper_Space
340
1E
  0
BLOCK_RECORD
  5
23
330
1
100
AcDbSymbolTableRecord
100
AcDbBlockTableRecord
  2
*Paper_Space0
340
26
  0
BLOCK_RECORD
  5
47
330
1
100
AcDbSymbolTableRecord
100
AcDbBlockTableRecord
  2
_formato_A4
340
0
102
{BLKREFS
331
6D
102
}
  0
BLOCK_RECORD
  5
4A
330
1
100
AcDbSymbolTableRecord
100
AcDbBlockTableRecord
  2
A4
340
0
102
{BLKREFS
331
70
102
}
  0
BLOCK_RECORD
  5
193
330
1
100
AcDbSymbolTableRecord
100
AcDbBlockTableRecord
  2
*D3
340
0
  0
BLOCK_RECORD
  5
19F
330
1
100
AcDbSymbolTableRecord
100
AcDbBlockTableRecord
  2
*D4
340
0
  0
BLOCK_RECORD
  5
1AA
330
1
100
AcDbSymbolTableRecord
100
AcDbBlockTableRecord
  2
*D5
340
0
  0
ENDTAB
  0
ENDSEC
  0
SECTION
  2
BLOCKS
  0
BLOCK
  5
20
330
1F
100
AcDbEntity
  8
0
100
AcDbBlockBegin
  2
*Model_Space
 70
     0
 10
0.0
 20
0.0
 30
0.0
  3
*Model_Space
  1

  0
ENDBLK
  5
21
330
1F
100
AcDbEntity
  8
0
100
AcDbBlockEnd
  0
BLOCK
  5
1C
330
1B
100
AcDbEntity
 67
     1
  8
0
100
AcDbBlockBegin
  2
*Paper_Space
 70
     0
 10
0.0
 20
0.0
 30
0.0
  3
*Paper_Space
  1

  0
ENDBLK
  5
1D
330
1B
100
AcDbEntity
 67
     1
  8
0
100
AcDbBlockEnd
  0
BLOCK
  5
24
330
23
100
AcDbEntity
  8
0
100
AcDbBlockBegin
  2
*Paper_Space0
 70
     0
 10
0.0
 20
0.0
 30
0.0
  3
*Paper_Space0
  1

  0
ENDBLK
  5
25
330
23
100
AcDbEntity
  8
0
100
AcDbBlockEnd
  0
BLOCK
  5
48
330
47
100
AcDbEntity
  8
0
100
AcDbBlockBegin
  2
_formato_A4
 70
     0
 10
-663.0602902748549
 20
12.82347112117775
 30
0.0
  3
_formato_A4
  1

  0
LINE
  5
71
330
47
100
AcDbEntity
  8
1
  6
Continuous
 62
     7
100
AcDbLine
 10
-852.0602902748549
 20
32.82347112117775
 30
0.0
 11
-668.0602902748549
 21
32.82347112117775
 31
0.0
  0
LINE
  5
72
330
47
100
AcDbEntity
  8
1
  6
Continuous
 62
     7
100
AcDbLine
 10
-852.0602902748549
 20
17.82347112117764
 30
0.0
 11
-668.0602902748549
 21
17.82347112117764
 31
0.0
  0
LINE
  5
73
330
47
100
AcDbEntity
  8
1
  6
Continuous
 62
     7
100
AcDbLine
 10
-827.0602902748548
 20
47.82347112117775
 30
0.0
 11
-827.0602902748548
 21
52.82347112117775
 31
0.0
  0
LINE
  5
74
330
47
100
AcDbEntity
  8
1
  6
Continuous
 62
     7
100
AcDbLine
 10
-845.0602902748549
 20
47.82347112117775
 30
0.0
 11
-845.0602902748549
 21
52.82347112117775
 31
0.0
  0
LINE
  5
75
330
47
100
AcDbEntity
  8
1
  6
Continuous
 62
     7
100
AcDbLine
 10
-852.0602902748549
 20
52.82347112117775
 30
0.0
 11
-668.0602902748549
 21
52.82347112117775
 31
0.0
  0
LINE
  5
76
330
47
100
AcDbEntity
  8
1
  6
Continuous
 62
     7
100
AcDbLine
 10
-827.0602902748548
 20
42.82347112117775
 30
0.0
 11
-827.0602902748548
 21
47.82347112117775
 31
0.0
  0
LINE
  5
77
330
47
100
AcDbEntity
  8
1
  6
Continuous
 62
     7
100
AcDbLine
 10
-845.0602902748549
 20
42.82347112117775
 30
0.0
 11
-845.0602902748549
 21
47.82347112117775
 31
0.0
  0
LINE
  5
78
330
47
100
AcDbEntity
  8
1
  6
Continuous
 62
     7
100
AcDbLine
 10
-852.0602902748549
 20
47.82347112117775
 30
0.0
 11
-668.0602902748549
 21
47.82347112117775
 31
0.0
  0
LINE
  5
79
330
47
100
AcDbEntity
  8
1
  6
Continuous
 62
     7
100
AcDbLine
 10
-827.0602902748548
 20
37.82347112117775
 30
0.0
 11
-827.0602902748548
 21
42.82347112117775
 31
0.0
  0
LINE
  5
7A
330
47
100
AcDbEntity
  8
1
  6
Continuous
 62
     7
100
AcDbLine
 10
-845.0602902748549
 20
37.82347112117775
 30
0.0
 11
-845.0602902748549
 21
42.82347112117775
 31
0.0
  0
LINE
  5
7B
330
47
100
AcDbEntity
  8
1
  6
Continuous
 62
     7
100
AcDbLine
 10
-852.0602902748549
 20
42.82347112117775
 30
0.0
 11
-668.0602902748549
 21
42.82347112117775
 31
0.0
  0
LINE
  5
7C
330
47
100
AcDbEntity
  8
1
  6
Continuous
 62
     7
100
AcDbLine
 10
-827.0602902748548
 20
32.82347112117775
 30
0.0
 11
-827.0602902748548
 21
37.82347112117775
 31
0.0
  0
LINE
  5
7D
330
47
100
AcDbEntity
  8
1
  6
Continuous
 62
     7
100
AcDbLine
 10
-845.0602902748549
 20
32.82347112117775
 30
0.0
 11
-845.0602902748549
 21
37.82347112117775
 31
0.0
  0
LINE
  5
7E
330
47
100
AcDbEntity
  8
1
  6
Continuous
 62
     7
100
AcDbLine
 10
-852.0602902748549
 20
37.82347112117775
 30
0.0
 11
-668.0602902748549
 21
37.82347112117775
 31
0.0
  0
LINE
  5
7F
102
{ACAD_REACTORS
330
C4
102
}
330
47
100
AcDbEntity
  8
1
  6
Continuous
 62
     7
100
AcDbLine
 10
-677.2174154349491
 20
23.38147320155808
 30
0.0
 11
-678.5507487682823
 21
22.61224243232748
 31
0.0
  0
LINE
  5
80
102
{ACAD_REACTORS
330
C4
102
}
330
47
100
AcDbEntity
  8
1
  6
Continuous
 62
     7
100
AcDbLine
 10
-678.3839895861122
 20
23.47810765382569
 30
0.0
 11
-677.5505637372754
 21
23.95893025892399
 31
0.0
  0
LINE
  5
81
102
{ACAD_REACTORS
330
C4
102
}
330
47
100
AcDbEntity
  8
1
  6
Continuous
 62
     7
100
AcDbLine
 10
-678.3839895861122
 20
24.99013778784438
 30
0.0
 11
-678.3839895861122
 21
23.47810765382569
 31
0.0
  0
LINE
  5
82
102
{ACAD_REACTORS
330
C4
102
}
330
47
100
AcDbEntity
  8
1
  6
Continuous
 62
     7
100
AcDbLine
 10
-677.3839895861122
 20
24.99013778784438
 30
0.0
 11
-678.3839895861122
 21
24.99013778784438
 31
0.0
  0
LINE
  5
83
102
{ACAD_REACTORS
330
C4
102
}
330
47
100
AcDbEntity
  8
1
  6
Continuous
 62
     7
100
AcDbLine
 10
-678.3839895861122
 20
25.65680445451101
 30
0.0
 11
-677.3839895861122
 21
25.65680445451101
 31
0.0
  0
LINE
  5
84
102
{ACAD_REACTORS
330
C4
102
}
330
47
100
AcDbEntity
  8
1
  6
Continuous
 62
     7
100
AcDbLine
 10
-678.3839895861122
 20
27.16883458852969
 30
0.0
 11
-678.3839895861122
 21
25.65680445451101
 31
0.0
  0
LINE
  5
85
102
{ACAD_REACTORS
330
C4
102
}
330
47
100
AcDbEntity
  8
1
  6
Continuous
 62
     7
100
AcDbLine
 10
-677.5505637372754
 20
26.68801198343151
 30
0.0
 11
-678.3839895861122
 21
27.16883458852969
 31
0.0
  0
LINE
  5
86
102
{ACAD_REACTORS
330
C4
102
}
330
47
100
AcDbEntity
  8
1
  6
Continuous
 62
     7
100
AcDbLine
 10
-678.5507487682823
 20
28.03469981002802
 30
0.0
 11
-677.2174154349491
 21
27.26546904079719
 31
0.0
  0
LINE
  5
87
102
{ACAD_REACTORS
330
C5
102
}
330
47
100
AcDbEntity
  8
1
  6
Continuous
 62
     7
100
AcDbLine
 10
-685.7173229194456
 20
23.67020173024098
 30
0.0
 11
-685.7173229194456
 21
26.97674051211441
 31
0.0
  0
LINE
  5
88
102
{ACAD_REACTORS
330
C5
102
}
330
47
100
AcDbEntity
  8
1
  6
Continuous
 62
     7
100
AcDbLine
 10
-685.0506562527789
 20
23.86272303844105
 30
0.0
 11
-685.0506562527789
 21
23.67020173024098
 31
0.0
  0
LINE
  5
89
102
{ACAD_REACTORS
330
C5
102
}
330
47
100
AcDbEntity
  8
1
  6
Continuous
 62
     7
100
AcDbLine
 10
-685.0506562527789
 20
26.97674051211441
 30
0.0
 11
-685.0506562527789
 21
23.86272303844105
 31
0.0
  0
LINE
  5
8A
102
{ACAD_REACTORS
330
C6
102
}
330
47
100
AcDbEntity
  8
1
  6
Continuous
 62
     7
100
AcDbLine
 10
-681.8838970706088
 20
21.26608858617356
 30
0.0
 11
-684.0504712217719
 21
22.51603521184466
 31
0.0
  0
LINE
  5
8B
102
{ACAD_REACTORS
330
C6
102
}
330
47
100
AcDbEntity
  8
1
  6
Continuous
 62
     7
100
AcDbLine
 10
-683.7173229194456
 20
23.09349226921045
 30
0.0
 11
-681.5507487682823
 21
21.84354564353935
 31
0.0
  0
LINE
  5
8C
102
{ACAD_REACTORS
330
C6
102
}
330
47
100
AcDbEntity
  8
1
  6
Continuous
 62
     7
100
AcDbLine
 10
-683.7173229194456
 20
27.74597128134512
 30
0.0
 11
-683.7173229194456
 21
23.09349226921045
 31
0.0
  0
LINE
  5
8D
102
{ACAD_REACTORS
330
C6
102
}
330
47
100
AcDbEntity
  8
1
  6
Continuous
 62
     7
100
AcDbLine
 10
-684.3839895861122
 20
23.09349226921033
 30
0.0
 11
-684.3839895861122
 21
27.74597128134512
 31
0.0
  0
LINE
  5
8E
102
{ACAD_REACTORS
330
C7
102
}
330
47
100
AcDbEntity
  8
1
  6
Continuous
 62
     7
100
AcDbLine
 10
-680.2117566030689
 20
28.68717153945004
 30
0.0
 11
-681.3839895861122
 21
26.65680445451101
 31
0.0
  0
LINE
  5
8F
102
{ACAD_REACTORS
330
C7
102
}
330
47
100
AcDbEntity
  8
1
  6
Continuous
 62
     7
100
AcDbLine
 10
-679.7173229194456
 20
22.13174019177955
 30
0.0
 11
-679.7173229194456
 21
28.55468843321232
 31
0.0
  0
LINE
  5
90
102
{ACAD_REACTORS
330
C7
102
}
330
47
100
AcDbEntity
  8
1
  6
Continuous
 62
     7
100
AcDbLine
 10
-680.3839895861122
 20
25.32347112117775
 30
0.0
 11
-680.3839895861122
 21
22.13174019177955
 31
0.0
  0
LINE
  5
91
102
{ACAD_REACTORS
330
C7
102
}
330
47
100
AcDbEntity
  8
1
  6
Continuous
 62
     7
100
AcDbLine
 10
-682.3839895861122
 20
23.67105619381066
 30
0.0
 11
-682.3839895861122
 21
25.32347112117775
 31
0.0
  0
LINE
  5
92
102
{ACAD_REACTORS
330
C7
102
}
330
47
100
AcDbEntity
  8
1
  6
Continuous
 62
     7
100
AcDbLine
 10
-683.0506562527789
 20
25.32347112117775
 30
0.0
 11
-683.0506562527789
 21
23.67105619381066
 31
0.0
  0
LINE
  5
93
102
{ACAD_REACTORS
330
C7
102
}
330
47
100
AcDbEntity
  8
1
  6
Continuous
 62
     7
100
AcDbLine
 10
-682.5562225691555
 20
28.68717153945004
 30
0.0
 11
-681.3839895861122
 21
26.65680445451101
 31
0.0
  0
LINE
  5
94
102
{ACAD_REACTORS
330
C7
102
}
330
47
100
AcDbEntity
  8
1
  6
Continuous
 62
     7
100
AcDbLine
 10
-683.0506562527789
 20
25.32347112117775
 30
0.0
 11
-683.0506562527789
 21
28.55468843321232
 31
0.0
  0
LINE
  5
95
330
47
100
AcDbEntity
  8
1
  6
Continuous
 62
     7
100
AcDbLine
 10
-681.3839895861122
 20
20.32347112117775
 30
0.0
 11
-689.8004248612538
 21
25.1791068568363
 31
0.0
  0
LINE
  5
96
330
47
100
AcDbEntity
  8
1
  6
Continuous
 62
     7
100
AcDbLine
 10
-672.9675543109707
 20
25.1791068568363
 30
0.0
 11
-681.3839895861122
 21
20.32347112117775
 31
0.0
  0
LINE
  5
97
330
47
100
AcDbEntity
  8
1
  6
Continuous
 62
     7
100
AcDbLine
 10
-681.3839895861122
 20
30.32347112117775
 30
0.0
 11
-672.9675543109707
 21
25.46783538551908
 31
0.0
  0
LINE
  5
98
330
47
100
AcDbEntity
  8
1
  6
Continuous
 62
     7
100
AcDbLine
 10
-689.8004248612538
 20
25.46783538551908
 30
0.0
 11
-681.3839895861122
 21
30.32347112117775
 31
0.0
  0
LINE
  5
99
102
{ACAD_REACTORS
330
C7
102
}
330
47
100
AcDbEntity
  8
1
  6
Continuous
 62
     7
100
AcDbLine
 10
-682.3839895861122
 20
27.05552192874659
 30
0.0
 11
-682.3839895861122
 21
25.32347112117775
 31
0.0
  0
LINE
  5
9A
102
{ACAD_REACTORS
330
C7
102
}
330
47
100
AcDbEntity
  8
1
  6
Continuous
 62
     7
100
AcDbLine
 10
-681.5283271534097
 20
25.57347112117775
 30
0.0
 11
-682.3839895861122
 21
27.05552192874659
 31
0.0
  0
LINE
  5
9B
102
{ACAD_REACTORS
330
C7
102
}
330
47
100
AcDbEntity
  8
1
  6
Continuous
 62
     7
100
AcDbLine
 10
-680.3839895861122
 20
27.05552192874659
 30
0.0
 11
-681.2396520188148
 21
25.57347112117775
 31
0.0
  0
LINE
  5
9C
102
{ACAD_REACTORS
330
C7
102
}
330
47
100
AcDbEntity
  8
1
  6
Continuous
 62
     7
100
AcDbLine
 10
-680.3839895861122
 20
25.32347112117775
 30
0.0
 11
-680.3839895861122
 21
27.05552192874659
 31
0.0
  0
LINE
  5
9D
102
{ACAD_REACTORS
330
C4
102
}
330
47
100
AcDbEntity
  8
1
  6
Continuous
 62
     7
100
AcDbLine
 10
-679.0506562527788
 20
22.90097096101038
 30
0.0
 11
-679.0506562527788
 21
27.74597128134512
 31
0.0
  0
LINE
  5
9E
330
47
100
AcDbEntity
  8
1
  6
Continuous
 62
     7
100
AcDbLine
 10
-852.0602902748549
 20
304.8234711211779
 30
0.0
 11
-852.0602902748549
 21
17.82347112117764
 31
0.0
  0
LINE
  5
9F
330
47
100
AcDbEntity
  8
1
  6
Continuous
 62
     7
100
AcDbLine
 10
-668.0602902748549
 20
304.8234711211779
 30
0.0
 11
-852.0602902748549
 21
304.8234711211779
 31
0.0
  0
LINE
  5
A0
330
47
100
AcDbEntity
  8
1
  6
Continuous
 62
     7
100
AcDbLine
 10
-668.0602902748549
 20
17.82347112117764
 30
0.0
 11
-668.0602902748549
 21
304.8234711211779
 31
0.0
  0
LINE
  5
A1
330
47
100
AcDbEntity
  8
1
  6
Continuous
 62
     7
100
AcDbLine
 10
-663.0602902748549
 20
309.8234711211779
 30
0.0
 11
-873.060290274855
 21
309.8234711211779
 31
0.0
  0
LINE
  5
A2
330
47
100
AcDbEntity
  8
1
  6
Continuous
 62
     7
100
AcDbLine
 10
-873.060290274855
 20
309.8234711211779
 30
0.0
 11
-873.060290274855
 21
12.82347112117775
 31
0.0
  0
LINE
  5
A3
330
47
100
AcDbEntity
  8
1
  6
Continuous
 62
     7
100
AcDbLine
 10
-873.060290274855
 20
12.82347112117775
 30
0.0
 11
-663.0602902748549
 21
12.82347112117775
 31
0.0
  0
LINE
  5
A4
330
47
100
AcDbEntity
  8
1
  6
Continuous
 62
     7
100
AcDbLine
 10
-663.0602902748549
 20
12.82347112117775
 30
0.0
 11
-663.0602902748549
 21
309.8234711211779
 31
0.0
  0
LINE
  5
A5
330
47
100
AcDbEntity
  8
1
  6
Continuous
 62
     7
100
AcDbLine
 10
-873.060290274855
 20
161.3234711211776
 30
0.0
 11
-858.060290274855
 21
161.3234711211776
 31
0.0
  0
LINE
  5
A6
330
47
100
AcDbEntity
  8
1
  6
Continuous
 62
     7
100
AcDbLine
 10
-852.0602902748549
 20
22.82347112117761
 30
0.0
 11
-822.0602902748549
 21
22.82347112117761
 31
0.0
  0
LINE
  5
A7
330
47
100
AcDbEntity
  8
1
  6
Continuous
 62
     7
100
AcDbLine
 10
-822.0602902748549
 20
32.82347112117775
 30
0.0
 11
-822.0602902748549
 21
17.82347112117775
 31
0.0
  0
LINE
  5
A8
330
47
100
AcDbEntity
  8
1
  6
Continuous
 62
     7
100
AcDbLine
 10
-694.7076888973695
 20
32.82347112117775
 30
0.0
 11
-694.7076888973695
 21
17.82347112117775
 31
0.0
  0
LINE
  5
A9
330
47
100
AcDbEntity
  8
1
  6
Continuous
 62
     7
100
AcDbLine
 10
-712.0602902748549
 20
32.82347112117775
 30
0.0
 11
-712.0602902748549
 21
17.82347112117775
 31
0.0
  0
LINE
  5
AA
330
47
100
AcDbEntity
  8
1
  6
Continuous
 62
     7
100
AcDbLine
 10
-852.0602902748549
 20
32.82347112117775
 30
0.0
 11
-852.0602902748549
 21
17.82347112117764
 31
0.0
  0
LINE
  5
AB
330
47
100
AcDbEntity
  8
1
  6
Continuous
 62
     7
100
AcDbLine
 10
-852.0602902748549
 20
27.82347112117764
 30
0.0
 11
-822.0602902748549
 21
27.82347112117764
 31
0.0
  0
ARC
  5
AC
102
{ACAD_REACTORS
330
C4
102
}
330
47
100
AcDbEntity
  8
1
  6
Continuous
 62
     7
100
AcDbCircle
 10
-677.3839895861122
 20
23.67020173024098
 30
0.0
 40
0.3333333333333172
100
AcDbArc
 50
299.9816393688334
 51
119.9816393688409
  0
ARC
  5
AD
102
{ACAD_REACTORS
330
C4
102
}
330
47
100
AcDbEntity
  8
1
  6
Continuous
 62
     7
100
AcDbCircle
 10
-677.3839895861122
 20
25.32347112117775
 30
0.0
 40
0.3333333333333712
100
AcDbArc
 50
270.0
 51
90.0
  0
ARC
  5
AE
102
{ACAD_REACTORS
330
C4
102
}
330
47
100
AcDbEntity
  8
1
  6
Continuous
 62
     7
100
AcDbCircle
 10
-677.3839895861122
 20
26.97674051211441
 30
0.0
 40
0.333333333333374
100
AcDbArc
 50
240.0183606311496
 51
60.01836063115623
  0
ARC
  5
AF
102
{ACAD_REACTORS
330
C5
102
}
330
47
100
AcDbEntity
  8
1
  6
Continuous
 62
     7
100
AcDbCircle
 10
-685.3839895861122
 20
23.67020173024098
 30
0.0
 40
0.3333333333333712
100
AcDbArc
 50
180.0
 51
0.0
  0
ARC
  5
B0
102
{ACAD_REACTORS
330
C5
102
}
330
47
100
AcDbEntity
  8
1
  6
Continuous
 62
     7
100
AcDbCircle
 10
-685.3839895861122
 20
26.97674051211441
 30
0.0
 40
0.3333333333332575
100
AcDbArc
 50
0.0
 51
180.0
  0
ARC
  5
B1
102
{ACAD_REACTORS
330
C6
102
}
330
47
100
AcDbEntity
  8
1
  6
Continuous
 62
     7
100
AcDbCircle
 10
-681.7173229194456
 20
21.55481711485645
 30
0.0
 40
0.3333333333333678
100
AcDbArc
 50
240.018360631149
 51
60.01836063114968
  0
ARC
  5
B2
102
{ACAD_REACTORS
330
C6
102
}
330
47
100
AcDbEntity
  8
1
  6
Continuous
 62
     7
100
AcDbCircle
 10
-684.0506562527789
 20
27.74597128134512
 30
0.0
 40
0.3333333333333712
100
AcDbArc
 50
0.0
 51
180.0
  0
ARC
  5
B3
102
{ACAD_REACTORS
330
C7
102
}
330
47
100
AcDbEntity
  8
1
  6
Continuous
 62
     7
100
AcDbCircle
 10
-679.9822891319209
 20
28.55468843321232
 30
0.0
 40
0.2649662124753149
100
AcDbArc
 50
0.0
 51
149.9999999999743
  0
ARC
  5
B4
102
{ACAD_REACTORS
330
C7
102
}
330
47
100
AcDbEntity
  8
1
  6
Continuous
 62
     7
100
AcDbCircle
 10
-680.0506562527788
 20
22.13174019177955
 30
0.0
 40
0.3333333333333712
100
AcDbArc
 50
180.0
 51
0.0
  0
ARC
  5
B5
102
{ACAD_REACTORS
330
C7
102
}
330
47
100
AcDbEntity
  8
1
  6
Continuous
 62
     7
100
AcDbCircle
 10
-682.7173229194456
 20
23.67105619381066
 30
0.0
 40
0.3333333333333712
100
AcDbArc
 50
180.0
 51
0.0
  0
ARC
  5
B6
102
{ACAD_REACTORS
330
C7
102
}
330
47
100
AcDbEntity
  8
1
  6
Continuous
 62
     7
100
AcDbCircle
 10
-682.7856900403036
 20
28.55468843321232
 30
0.0
 40
0.2649662124753355
100
AcDbArc
 50
30.0000000000134
 51
180.0
  0
ARC
  5
B7
102
{ACAD_REACTORS
330
C4
102
}
330
47
100
AcDbEntity
  8
1
  6
Continuous
 62
     7
100
AcDbCircle
 10
-678.7173229194456
 20
22.90097096101038
 30
0.0
 40
0.3333333333332575
100
AcDbArc
 50
180.0
 51
299.9816393688503
  0
ARC
  5
B8
102
{ACAD_REACTORS
330
C4
102
}
330
47
100
AcDbEntity
  8
1
  6
Continuous
 62
     7
100
AcDbCircle
 10
-678.7173229194456
 20
27.74597128134512
 30
0.0
 40
0.333333333333374
100
AcDbArc
 50
60.01836063114968
 51
180.0
  0
ARC
  5
B9
330
47
100
AcDbEntity
  8
1
  6
Continuous
 62
     7
100
AcDbCircle
 10
-673.0508413865523
 20
25.32347112117775
 30
0.0
 40
0.1666666666666601
100
AcDbArc
 50
299.9816393688331
 51
60.01836063114615
  0
ARC
  5
BA
330
47
100
AcDbEntity
  8
1
  6
Continuous
 62
     7
100
AcDbCircle
 10
-689.7171377856721
 20
25.32347112117775
 30
0.0
 40
0.1666666666666123
100
AcDbArc
 50
119.9816393688877
 51
240.018360631133
  0
ARC
  5
BB
102
{ACAD_REACTORS
330
C6
102
}
330
47
100
AcDbEntity
  8
1
  6
Continuous
 62
     7
100
AcDbCircle
 10
-683.7173229194456
 20
23.09349226921045
 30
0.0
 40
0.6666666666666288
100
AcDbArc
 50
180.0000000000104
 51
240.0183606311578
  0
ARC
  5
BC
102
{ACAD_REACTORS
330
C7
102
}
330
47
100
AcDbEntity
  8
1
  6
Continuous
 62
     7
100
AcDbCircle
 10
-681.3839895861122
 20
25.65680445451101
 30
0.0
 40
0.1666666666667099
100
AcDbArc
 50
209.9999999999627
 51
330.0000000000177
  0
MTEXT
  5
BE
330
47
100
AcDbEntity
  8
1
 62
     7
100
AcDbMText
 10
-703.3839895861122
 20
29.08411054193373
 30
0.0
 40
3.0
 41
0.0
 71
     5
 72
     1
  1
Scale
  7
CONVERTER_11
 73
     1
 44
1.32052821128451
  0
MTEXT
  5
BF
330
47
100
AcDbEntity
  8
1
 62
     7
100
AcDbMText
 10
-851.0602902748549
 20
20.32347112117762
 30
0.0
 40
3.0
 41
0.0
 71
     4
 72
     1
  1
Sign.
  7
CONVERTER_11
 73
     1
 44
1.32052821128451
  0
MTEXT
  5
C0
330
47
100
AcDbEntity
  8
1
 62
     7
100
AcDbMText
 10
-851.0602902748549
 20
25.32347112117762
 30
0.0
 40
3.0
 41
0.0
 71
     4
 72
     1
  1
Date
  7
CONVERTER_11
 73
     1
 44
1.32052821128451
  0
MTEXT
  5
C1
330
47
100
AcDbEntity
  8
1
 62
     7
100
AcDbMText
 10
-857.060290274855
 20
164.3234711211776
 30
0.0
 40
4.0
 41
0.0
 71
     5
 72
     1
  1
Diritti riservati      All rights reserved
  7
CONVERTER_11
 11
0.0
 21
1.0
 31
0.0
 73
     1
 44
1.32052821128451
  0
MTEXT
  5
C3
330
47
100
AcDbEntity
  8
1
 62
     7
100
AcDbMText
 10
-837.0602902748549
 20
30.32347112117769
 30
0.0
 40
2.5
 41
0.0
 71
     5
 72
     1
  1
dimensions in mm
  7
CONVERTER_12
 73
     1
 44
0.60024009603842
  0
HATCH
  5
C4
330
47
100
AcDbEntity
  8
1
  6
Continuous
 62
     7
100
AcDbHatch
 10
0.0
 20
0.0
 30
0.0
210
0.0
220
0.0
230
1.0
  2
SOLID
 70
     1
 71
     1
 91
        1
 92
        1
 93
       14
 72
     2
 10
-678.7173229194456
 20
27.74597128134512
 40
0.333333333333374
 50
60.01836063114968
 51
180.0
 73
     1
 72
     1
 10
-679.0506562527788
 20
27.74597128134512
 11
-679.0506562527788
 21
22.90097096101038
 72
     2
 10
-678.7173229194456
 20
22.90097096101038
 40
0.3333333333332575
 50
180.0
 51
299.9816393688503
 73
     1
 72
     1
 10
-678.5507487682823
 20
22.61224243232748
 11
-677.2174154349491
 21
23.38147320155808
 72
     2
 10
-677.3839895861122
 20
23.67020173024098
 40
0.3333333333333172
 50
299.9816393688334
 51
479.9816393688409
 73
     1
 72
     1
 10
-677.5505637372754
 20
23.95893025892399
 11
-678.3839895861122
 21
23.47810765382569
 72
     1
 10
-678.3839895861122
 20
23.47810765382569
 11
-678.3839895861122
 21
24.99013778784438
 72
     1
 10
-678.3839895861122
 20
24.99013778784438
 11
-677.3839895861122
 21
24.99013778784438
 72
     2
 10
-677.3839895861122
 20
25.32347112117775
 40
0.3333333333333712
 50
270.0
 51
450.0
 73
     1
 72
     1
 10
-677.3839895861122
 20
25.65680445451101
 11
-678.3839895861122
 21
25.65680445451101
 72
     1
 10
-678.3839895861122
 20
25.65680445451101
 11
-678.3839895861122
 21
27.16883458852969
 72
     1
 10
-678.3839895861122
 20
27.16883458852969
 11
-677.5505637372754
 21
26.68801198343151
 72
     2
 10
-677.3839895861122
 20
26.97674051211441
 40
0.333333333333374
 50
240.0183606311496
 51
420.0183606311563
 73
     1
 72
     1
 10
-677.2174154349491
 20
27.26546904079719
 11
-678.5507487682823
 21
28.03469981002802
 97
       14
330
AE
330
85
330
84
330
83
330
AD
330
82
330
81
330
80
330
AC
330
7F
330
B7
330
9D
330
B8
330
86
 75
     0
 76
     1
 98
        1
 10
0.0
 20
0.0
  0
HATCH
  5
C5
330
47
100
AcDbEntity
  8
1
  6
Continuous
 62
     7
100
AcDbHatch
 10
0.0
 20
0.0
 30
0.0
210
0.0
220
0.0
230
1.0
  2
SOLID
 70
     1
 71
     1
 91
        1
 92
        1
 93
        5
 72
     2
 10
-685.3839895861122
 20
26.97674051211441
 40
0.3333333333332575
 50
0.0
 51
180.0
 73
     1
 72
     1
 10
-685.7173229194456
 20
26.97674051211441
 11
-685.7173229194456
 21
23.67020173024098
 72
     2
 10
-685.3839895861122
 20
23.67020173024098
 40
0.3333333333333712
 50
180.0
 51
360.0
 73
     1
 72
     1
 10
-685.0506562527789
 20
23.67020173024098
 11
-685.0506562527789
 21
23.86272303844105
 72
     1
 10
-685.0506562527789
 20
23.86272303844105
 11
-685.0506562527789
 21
26.97674051211441
 97
        5
330
B0
330
87
330
AF
330
88
330
89
 75
     0
 76
     1
 98
        1
 10
0.0
 20
0.0
  0
HATCH
  5
C6
330
47
100
AcDbEntity
  8
1
  6
Continuous
 62
     7
100
AcDbHatch
 10
0.0
 20
0.0
 30
0.0
210
0.0
220
0.0
230
1.0
  2
SOLID
 70
     1
 71
     1
 91
        1
 92
        1
 93
        7
 72
     2
 10
-684.0506562527789
 20
27.74597128134512
 40
0.3333333333333712
 50
0.0
 51
180.0
 73
     1
 72
     1
 10
-684.3839895861122
 20
27.74597128134512
 11
-684.3839895861122
 21
23.09349226921033
 72
     2
 10
-683.7173229194456
 20
23.09349226921045
 40
0.6666666666666288
 50
180.0000000000104
 51
240.0183606311578
 73
     1
 72
     1
 10
-684.0504712217719
 20
22.51603521184466
 11
-681.8838970706088
 21
21.26608858617356
 72
     2
 10
-681.7173229194456
 20
21.55481711485645
 40
0.3333333333333678
 50
240.018360631149
 51
420.0183606311497
 73
     1
 72
     1
 10
-681.5507487682823
 20
21.84354564353935
 11
-683.7173229194456
 21
23.09349226921045
 72
     1
 10
-683.7173229194456
 20
23.09349226921045
 11
-683.7173229194456
 21
27.74597128134512
 97
        7
330
B2
330
8D
330
BB
330
8A
330
B1
330
8B
330
8C
 75
     0
 76
     1
 98
        1
 10
0.0
 20
0.0
  0
HATCH
  5
C7
330
47
100
AcDbEntity
  8
1
  6
Continuous
 62
     7
100
AcDbHatch
 10
0.0
 20
0.0
 30
0.0
210
0.0
220
0.0
230
1.0
  2
SOLID
 70
     1
 71
     1
 91
        1
 92
        1
 93
       16
 72
     2
 10
-679.9822891319209
 20
28.55468843321232
 40
0.2649662124753149
 50
210.0000000000257
 51
360.0
 73
     0
 72
     1
 10
-679.7173229194456
 20
28.55468843321232
 11
-679.7173229194456
 21
22.13174019177955
 72
     2
 10
-680.0506562527788
 20
22.13174019177955
 40
0.3333333333333712
 50
0.0
 51
180.0
 73
     0
 72
     1
 10
-680.3839895861122
 20
22.13174019177955
 11
-680.3839895861122
 21
25.32347112117775
 72
     1
 10
-680.3839895861122
 20
25.32347112117775
 11
-680.3839895861122
 21
27.05552192874659
 72
     1
 10
-680.3839895861122
 20
27.05552192874659
 11
-681.2396520188148
 21
25.57347112117775
 72
     2
 10
-681.3839895861122
 20
25.65680445451101
 40
0.1666666666667099
 50
29.99999999998231
 51
150.0000000000373
 73
     0
 72
     1
 10
-681.5283271534097
 20
25.57347112117775
 11
-682.3839895861122
 21
27.05552192874659
 72
     1
 10
-682.3839895861122
 20
27.05552192874659
 11
-682.3839895861122
 21
25.32347112117775
 72
     1
 10
-682.3839895861122
 20
25.32347112117775
 11
-682.3839895861122
 21
23.67105619381066
 72
     2
 10
-682.7173229194456
 20
23.67105619381066
 40
0.3333333333333712
 50
0.0
 51
180.0
 73
     0
 72
     1
 10
-683.0506562527789
 20
23.67105619381066
 11
-683.0506562527789
 21
25.32347112117775
 72
     1
 10
-683.0506562527789
 20
25.32347112117775
 11
-683.0506562527789
 21
28.55468843321232
 72
     2
 10
-682.7856900403036
 20
28.55468843321232
 40
0.2649662124753355
 50
180.0
 51
329.9999999999866
 73
     0
 72
     1
 10
-682.5562225691555
 20
28.68717153945004
 11
-681.3839895861122
 21
26.65680445451101
 72
     1
 10
-681.3839895861122
 20
26.65680445451101
 11
-680.2117566030689
 21
28.68717153945004
 97
       16
330
93
330
B6
330
94
330
92
330
B5
330
91
330
99
330
9A
330
BC
330
9B
330
9C
330
90
330
B4
330
8F
330
B3
330
8E
 75
     0
 76
     1
 98
        1
 10
0.0
 20
0.0
  0
ENDBLK
  5
49
330
47
100
AcDbEntity
  8
0
100
AcDbBlockEnd
  0
BLOCK
  5
6E
330
4A
100
AcDbEntity
  8
0
100
AcDbBlockBegin
  2
A4
 70
     0
 10
-132.612058054971
 20
2.56469422423555
 30
0.0
  3
A4
  1

  0
INSERT
  5
6D
330
4A
100
AcDbEntity
  8
1
100
AcDbBlockReference
  2
_formato_A4
 10
-132.612058054971
 20
2.56469422423555
 30
0.0
 41
0.2
 42
0.2
 43
0.2
  0
ENDBLK
  5
6F
330
4A
100
AcDbEntity
  8
0
100
AcDbBlockEnd
  0
BLOCK
  5
19B
330
193
100
AcDbEntity
  8
0
100
AcDbBlockBegin
  2
*D3
 70
     1
 10
0.0
 20
0.0
 30
0.0
  3
*D3
  1

  0
LINE
  5
194
330
193
100
AcDbEntity
  8
1
  6
Continuous
 62
     2
100
AcDbLine
 10
-161.658954619756
 20
25.74015785051543
 30
0.0
 11
-161.658954619756
 21
22.74015785051543
 31
0.0
  0
LINE
  5
195
330
193
100
AcDbEntity
  8
1
  6
Continuous
 62
     2
100
AcDbLine
 10
-158.6066389441611
 20
22.74015785051543
 30
0.0
 11
-161.858954619756
 21
22.74015785051543
 31
0.0
  0
LINE
  5
196
330
193
100
AcDbEntity
  8
1
  6
Continuous
 62
     2
100
AcDbLine
 10
-158.578471710791
 20
25.74015785051543
 30
0.0
 11
-161.858954619756
 21
25.74015785051543
 31
0.0
  0
SOLID
  5
197
330
193
100
AcDbEntity
  8
1
 62
     2
100
AcDbTrace
 10
-161.5799631212036
 20
25.14015785051543
 30
0.0
 11
-161.7379461183084
 21
25.14015785051543
 31
0.0
 12
-161.658954619756
 22
25.74015785051543
 32
0.0
 13
-161.658954619756
 23
25.74015785051543
 33
0.0
  0
SOLID
  5
198
330
193
100
AcDbEntity
  8
1
 62
     2
100
AcDbTrace
 10
-161.7379461183084
 20
23.34015785051543
 30
0.0
 11
-161.5799631212036
 21
23.34015785051543
 31
0.0
 12
-161.658954619756
 22
22.74015785051543
 32
0.0
 13
-161.658954619756
 23
22.74015785051543
 33
0.0
  0
MTEXT
  5
19A
330
193
100
AcDbEntity
  8
1
 62
     4
100
AcDbMText
 10
-162.058954619756
 20
24.06015785051543
 30
0.0
 40
0.6
 41
0.0
 71
     7
 72
     1
  1
3
  7
CONVERTER_13
 11
0.0
 21
1.0
 31
0.0
 73
     1
 44
0.60024009603842
  0
ENDBLK
  5
19C
330
193
100
AcDbEntity
  8
0
100
AcDbBlockEnd
  0
BLOCK
  5
1A6
330
19F
100
AcDbEntity
  8
0
100
AcDbBlockBegin
  2
*D4
 70
     1
 10
0.0
 20
0.0
 30
0.0
  3
*D4
  1

  0
LINE
  5
1A0
330
19F
100
AcDbEntity
  8
1
  6
Continuous
 62
     2
100
AcDbLine
 10
-159.2404485651921
 20
44.90314133005451
 30
0.0
 11
-155.4404485651921
 21
44.90314133005451
 31
0.0
  0
LINE
  5
1A1
330
19F
100
AcDbEntity
  8
1
  6
Continuous
 62
     2
100
AcDbLine
 10
-155.4404485651921
 20
43.04015888632984
 30
0.0
 11
-155.4404485651921
 21
45.10314133005451
 31
0.0
  0
LINE
  5
1A2
330
19F
100
AcDbEntity
  8
1
  6
Continuous
 62
     2
100
AcDbLine
 10
-159.2404485651921
 20
43.04015888632984
 30
0.0
 11
-159.2404485651921
 21
45.10314133005451
 31
0.0
  0
SOLID
  5
1A3
330
19F
100
AcDbEntity
  8
1
 62
     2
100
AcDbTrace
 10
-158.6404485651921
 20
44.98213282860695
 30
0.0
 11
-158.6404485651921
 21
44.82414983150207
 31
0.0
 12
-159.2404485651921
 22
44.90314133005451
 32
0.0
 13
-159.2404485651921
 23
44.90314133005451
 33
0.0
  0
SOLID
  5
1A4
330
19F
100
AcDbEntity
  8
1
 62
     2
100
AcDbTrace
 10
-156.0404485651921
 20
44.82414983150207
 30
0.0
 11
-156.0404485651921
 21
44.98213282860695
 31
0.0
 12
-155.4404485651921
 22
44.90314133005451
 32
0.0
 13
-155.4404485651921
 23
44.90314133005451
 33
0.0
  0
MTEXT
  5
1A5
330
19F
100
AcDbEntity
  8
1
 62
     4
100
AcDbMText
 10
-157.8954485651921
 20
45.3631413300545
 30
0.0
 40
0.6
 41
0.0
 71
     7
 72
     1
  1
3,8
  7
CONVERTER_13
 11
0.9999999999970619
 21
2.424068405545306E-6
 31
0.0
 73
     1
 44
0.60024009603842
  0
ENDBLK
  5
1A7
330
19F
100
AcDbEntity
  8
0
100
AcDbBlockEnd
  0
BLOCK
  5
1B1
330
1AA
100
AcDbEntity
  8
0
100
AcDbBlockBegin
  2
*D5
 70
     1
 10
0.0
 20
0.0
 30
0.0
  3
*D5
  1

  0
LINE
  5
1AB
330
1AA
100
AcDbEntity
  8
1
  6
Continuous
 62
     2
100
AcDbLine
 10
-141.226466919728
 20
43.24015888632994
 30
0.0
 11
-141.226466919728
 21
31.24015888633002
 31
0.0
  0
LINE
  5
1AC
330
1AA
100
AcDbEntity
  8
1
  6
Continuous
 62
     2
100
AcDbLine
 10
-146.4516978729223
 20
31.24015888633002
 30
0.0
 11
-141.026466919728
 21
31.24015888633002
 31
0.0
  0
LINE
  5
1AD
330
1AA
100
AcDbEntity
  8
1
  6
Continuous
 62
     2
100
AcDbLine
 10
-146.0016978729223
 20
43.24015888632994
 30
0.0
 11
-141.026466919728
 21
43.24015888632994
 31
0.0
  0
SOLID
  5
1AE
330
1AA
100
AcDbEntity
  8
1
 62
     2
100
AcDbTrace
 10
-141.1474754211756
 20
42.64015888632994
 30
0.0
 11
-141.3054584182804
 21
42.64015888632994
 31
0.0
 12
-141.226466919728
 22
43.24015888632994
 32
0.0
 13
-141.226466919728
 23
43.24015888632994
 33
0.0
  0
SOLID
  5
1AF
330
1AA
100
AcDbEntity
  8
1
 62
     2
100
AcDbTrace
 10
-141.3054584182804
 20
31.84015888633002
 30
0.0
 11
-141.1474754211756
 21
31.84015888633002
 31
0.0
 12
-141.226466919728
 22
31.24015888633002
 32
0.0
 13
-141.226466919728
 23
31.24015888633002
 33
0.0
  0
MTEXT
  5
1B0
330
1AA
100
AcDbEntity
  8
1
 62
     4
100
AcDbMText
 10
-141.626466919728
 20
36.88015888632998
 30
0.0
 40
0.6
 41
0.0
 71
     7
 72
     1
  1
12
  7
CONVERTER_13
 11
0.0
 21
1.0
 31
0.0
 73
     1
 44
0.60024009603842
  0
ENDBLK
  5
1B2
330
1AA
100
AcDbEntity
  8
0
100
AcDbBlockEnd
  0
ENDSEC
  0
SECTION
  2
ENTITIES
  0
INSERT
  5
70
330
1F
100
AcDbEntity
  8
0
100
AcDbBlockReference
  2
A4
 10
-132.612058054971
 20
2.56469422423555
 30
0.0
  0
LINE
  5
C8
330
1F
100
AcDbEntity
  8
0
  6
Continuous
 62
     7
100
AcDbLine
 10
-156.2024254195932
 20
25.74015785051543
 30
0.0
 11
-158.478471710791
 21
25.74015785051543
 31
0.0
  0
LINE
  5
C9
330
1F
100
AcDbEntity
  8
0
  6
Continuous
 62
     7
100
AcDbLine
 10
-158.5066389441611
 20
25.74015785051543
 30
0.0
 11
-158.478471710791
 21
25.74015785051543
 31
0.0
  0
LINE
  5
CA
330
1F
100
AcDbEntity
  8
0
  6
Continuous
 62
     7
100
AcDbLine
 10
-156.2024254195932
 20
25.74015785051543
 30
0.0
 11
-156.174258186223
 21
25.74015785051543
 31
0.0
  0
LINE
  5
CB
330
1F
100
AcDbEntity
  8
0
  6
Continuous
 62
     7
100
AcDbLine
 10
-158.5066389441611
 20
22.74015785051543
 30
0.0
 11
-156.174258186223
 21
22.74015785051543
 31
0.0
  0
LINE
  5
CC
330
1F
100
AcDbEntity
  8
0
  6
Continuous
 62
     7
100
AcDbLine
 10
-137.4547321866551
 20
56.15882110937802
 30
0.0
 11
-140.6367127019946
 21
57.74981136704773
 31
0.0
  0
LINE
  5
CD
330
1F
100
AcDbEntity
  8
0
  6
Continuous
 62
     7
100
AcDbLine
 10
-136.1511800999894
 20
52.9230541521304
 30
0.0
 11
-135.1965859453876
 21
53.4003512294313
 31
0.0
  0
LINE
  5
CE
330
1F
100
AcDbEntity
  8
0
  6
Continuous
 62
     7
100
AcDbLine
 10
-135.1965859453876
 20
53.4003512294313
 30
0.0
 11
-135.5862973770906
 21
53.59520694528283
 31
0.0
  0
LINE
  5
CF
330
1F
100
AcDbEntity
  8
0
  6
Continuous
 62
     7
100
AcDbLine
 10
-136.1511800999894
 20
52.9230541521304
 30
0.0
 11
-136.1511800999857
 21
52.80614072261532
 31
0.0
  0
LINE
  5
D0
330
1F
100
AcDbEntity
  8
0
  6
Continuous
 62
     7
100
AcDbLine
 10
-135.1965859457446
 20
53.2834377989224
 30
0.0
 11
-135.1965859453876
 21
53.4003512294313
 31
0.0
  0
LINE
  5
D1
330
1F
100
AcDbEntity
  8
0
  6
Continuous
 62
     7
100
AcDbLine
 10
-135.1965859453876
 20
53.90697609064529
 30
0.0
 11
-135.1965859453876
 21
53.79006266113439
 31
0.0
  0
LINE
  5
D2
330
1F
100
AcDbEntity
  8
0
  6
Continuous
 62
     7
100
AcDbLine
 10
-135.1965859453876
 20
53.79006266113439
 30
0.0
 11
-136.1511800999894
 21
53.31276558383338
 31
0.0
  0
LINE
  5
D3
330
1F
100
AcDbEntity
  8
0
  6
Continuous
 62
     7
100
AcDbLine
 10
-137.9012693834261
 20
53.7980987938488
 30
0.0
 11
-136.1511800999894
 21
52.9230541521304
 31
0.0
  0
LINE
  5
D4
330
1F
100
AcDbEntity
  8
0
  6
Continuous
 62
     7
100
AcDbLine
 10
-137.0175046955343
 20
52.62967038042763
 30
0.0
 11
-137.1595687829362
 21
52.70070242415685
 31
0.0
  0
LINE
  5
D5
330
1F
100
AcDbEntity
  8
0
  6
Continuous
 62
     7
100
AcDbLine
 10
-136.1511800999894
 20
53.31276558383338
 30
0.0
 11
-137.9012693834261
 21
54.18781022555172
 31
0.0
  0
LINE
  5
D6
330
1F
100
AcDbEntity
  8
0
  6
Continuous
 62
     2
100
AcDbLine
 10
-137.5115579517231
 20
53.99295450970016
 30
0.0
 11
-137.9012693834261
 21
53.7980987938488
 31
0.0
  0
LINE
  5
D7
330
1F
100
AcDbEntity
  8
0
  6
Continuous
 62
     7
100
AcDbLine
 10
-136.1511800999896
 20
53.42967901334445
 30
0.0
 11
-136.1511800999894
 21
53.31276558383338
 31
0.0
  0
LINE
  5
D8
330
1F
100
AcDbEntity
  8
0
  6
Continuous
 62
     7
100
AcDbLine
 10
-144.1533927522643
 20
55.81248475834335
 30
0.0
 11
-144.1533927522643
 21
57.58279113713429
 31
0.0
  0
LINE
  5
D9
330
1F
100
AcDbEntity
  8
0
  6
Continuous
 62
     7
100
AcDbLine
 10
-141.9095049081303
 20
58.38620747011556
 30
0.0
 11
-142.3549821802779
 21
58.60894610618937
 31
0.0
  0
LINE
  5
DA
330
1F
100
AcDbEntity
  8
0
  6
Continuous
 62
     7
100
AcDbLine
 10
-143.6288343110372
 20
57.28839534065742
 30
0.0
 11
-144.0743115831847
 21
57.51113397673124
 31
0.0
  0
LINE
  5
DB
330
1F
100
AcDbEntity
  8
0
  6
Continuous
 62
     2
100
AcDbLine
 10
-142.2287628842878
 20
58.45621087824956
 30
0.0
 11
-142.2287628842878
 21
58.38090209694088
 31
0.0
  0
LINE
  5
DC
330
1F
100
AcDbEntity
  8
0
  6
Continuous
 62
     2
100
AcDbLine
 10
-144.0743115831847
 20
55.69322308782612
 30
0.0
 11
-144.0743115831847
 21
57.51113397673124
 31
0.0
  0
LINE
  5
DD
330
1F
100
AcDbEntity
  8
0
  6
Continuous
 62
     7
100
AcDbLine
 10
-137.7421703576591
 20
55.59812328470006
 30
0.0
 11
-136.554819978878
 21
55.00444809530951
 31
0.0
  0
LINE
  5
DE
330
1F
100
AcDbEntity
  8
0
  6
Continuous
 62
     7
100
AcDbLine
 10
-135.2178186311427
 20
53.94085827725937
 30
0.0
 11
-135.2589186036066
 21
53.99922746581078
 31
0.0
  0
LINE
  5
DF
330
1F
100
AcDbEntity
  8
0
  6
Continuous
 62
     7
100
AcDbLine
 10
-137.0175046955355
 20
54.47247395108278
 30
0.0
 11
-137.1595687829216
 21
54.54350599477258
 31
0.0
  0
LINE
  5
E0
330
1F
100
AcDbEntity
  8
0
  6
Continuous
 62
     7
100
AcDbLine
 10
-135.8676842842626
 20
52.64112697101957
 30
0.0
 11
-136.8594096961228
 21
52.61136304574982
 31
0.0
  0
LINE
  5
E1
330
1F
100
AcDbEntity
  8
0
  6
Continuous
 62
     7
100
AcDbLine
 10
-138.9842026832649
 20
53.09988011615832
 30
0.0
 11
-142.1661831986045
 21
54.69087037382804
 31
0.0
  0
LINE
  5
E2
330
1F
100
AcDbEntity
  8
0
  6
Continuous
 62
     7
100
AcDbLine
 10
-141.0832498987656
 20
55.35333236143394
 30
0.0
 11
-139.8104576926298
 21
54.71693625836605
 31
0.0
  0
LINE
  5
E3
330
1F
100
AcDbEntity
  8
0
  6
Continuous
 62
     7
100
AcDbLine
 10
-138.696764512261
 20
55.1208262073991
 30
0.0
 11
-137.2330534752047
 21
54.38897068887133
 31
0.0
  0
LINE
  5
E4
330
1F
100
AcDbEntity
  8
0
  6
Continuous
 62
     7
100
AcDbLine
 10
-136.0629105409354
 20
54.94977102838167
 30
0.0
 11
-136.2049746283363
 21
55.02080307206294
 31
0.0
  0
LINE
  5
E5
330
1F
100
AcDbEntity
  8
0
  6
Continuous
 62
     7
100
AcDbLine
 10
-142.3560421049014
 20
54.95073418822992
 30
0.0
 11
-142.8651589873556
 21
55.20529262945713
 31
0.0
  0
LINE
  5
E6
330
1F
100
AcDbEntity
  8
0
  6
Continuous
 62
     7
100
AcDbLine
 10
-141.7196460018334
 20
55.03513430990009
 30
0.0
 11
-139.8104576926298
 21
54.08054015529823
 31
0.0
  0
LINE
  5
E7
330
1F
100
AcDbEntity
  8
0
  6
Continuous
 62
     7
100
AcDbLine
 10
-138.696764512261
 20
53.66057794083628
 30
0.0
 11
-138.696764512261
 21
55.1208262073991
 31
0.0
  0
LINE
  5
E8
330
1F
100
AcDbEntity
  8
0
  6
Continuous
 62
     7
100
AcDbLine
 10
-139.8104576926298
 20
54.08054015529823
 30
0.0
 11
-139.8104576926298
 21
54.85996301870427
 31
0.0
  0
LINE
  5
E9
330
1F
100
AcDbEntity
  8
0
  6
Continuous
 62
     7
100
AcDbLine
 10
-139.1740615895619
 20
53.24309809101465
 30
0.0
 11
-142.3560421049014
 21
54.83408834868431
 31
0.0
  0
LINE
  5
EA
330
1F
100
AcDbEntity
  8
0
  6
Continuous
 62
     7
100
AcDbLine
 10
-139.1740615895619
 20
53.24309809101465
 30
0.0
 11
-139.1740615895619
 21
55.06100897991988
 31
0.0
  0
LINE
  5
EB
330
1F
100
AcDbEntity
  8
0
  6
Continuous
 62
     7
100
AcDbLine
 10
-137.2648732803582
 20
56.01560313452158
 30
0.0
 11
-137.2648732803582
 21
55.35947474604956
 31
0.0
  0
LINE
  5
EC
330
1F
100
AcDbEntity
  8
0
  6
Continuous
 62
     7
100
AcDbLine
 10
-139.1740615895619
 20
55.06100897991988
 30
0.0
 11
-142.3560421049014
 21
56.6519992375896
 31
0.0
  0
LINE
  5
ED
330
1F
100
AcDbEntity
  8
0
  6
Continuous
 62
     7
100
AcDbLine
 10
-141.846925222447
 20
57.55358716295246
 30
0.0
 11
-142.8651589873556
 21
58.06270404540704
 31
0.0
  0
LINE
  5
EE
330
1F
100
AcDbEntity
  8
0
  6
Continuous
 62
     7
100
AcDbLine
 10
-141.0832498987656
 20
55.35333236143394
 30
0.0
 11
-141.0832498987656
 21
55.49635912177212
 31
0.0
  0
LINE
  5
EF
330
1F
100
AcDbEntity
  8
0
  6
Continuous
 62
     2
100
AcDbLine
 10
-142.8651589873556
 20
58.06270404540704
 30
0.0
 11
-142.8651589873556
 21
55.20529262945713
 31
0.0
  0
LINE
  5
F0
330
1F
100
AcDbEntity
  8
0
  6
Continuous
 62
     2
100
AcDbLine
 10
-143.1197174285829
 20
58.0107336061021
 30
0.0
 11
-143.1197174285828
 21
55.25726306876204
 31
0.0
  0
LINE
  5
F1
330
1F
100
AcDbEntity
  8
0
  6
Continuous
 62
     7
100
AcDbLine
 10
-139.8104576926298
 20
54.85996301870427
 30
0.0
 11
-141.7196460018334
 21
55.81455717330614
 31
0.0
  0
LINE
  5
F2
330
1F
100
AcDbEntity
  8
0
  6
Continuous
 62
     2
100
AcDbLine
 10
-141.846925222447
 20
57.37433750303413
 30
0.0
 11
-141.846925222447
 21
57.55358716295246
 31
0.0
  0
LINE
  5
F3
330
1F
100
AcDbEntity
  8
0
  6
Continuous
 62
     7
100
AcDbLine
 10
-141.7196460018334
 20
55.81455717330614
 30
0.0
 11
-141.7196460018334
 21
55.03513430990009
 31
0.0
  0
LINE
  5
F4
330
1F
100
AcDbEntity
  8
0
  6
Continuous
 62
     7
100
AcDbLine
 10
-141.7196460018334
 20
55.03513430990009
 30
0.0
 11
-141.0832498987656
 21
55.35333236143394
 31
0.0
  0
LINE
  5
F5
330
1F
100
AcDbEntity
  8
0
  6
Continuous
 62
     7
100
AcDbLine
 10
-143.6288343110372
 20
55.47048445175231
 30
0.0
 11
-144.0743115831847
 21
55.69322308782612
 31
0.0
  0
LINE
  5
F6
330
1F
100
AcDbEntity
  8
0
  6
Continuous
 62
     7
100
AcDbLine
 10
-143.4389754047403
 20
55.32726647689587
 30
0.0
 11
-143.8844526768877
 21
55.55000511296968
 31
0.0
  0
LINE
  5
F7
330
1F
100
AcDbEntity
  8
0
  6
Continuous
 62
     7
100
AcDbLine
 10
-143.6288343110372
 20
57.28839534065742
 30
0.0
 11
-143.6288343110372
 21
55.47048445175231
 31
0.0
  0
LINE
  5
F8
330
1F
100
AcDbEntity
  8
0
  6
Continuous
 62
     7
100
AcDbLine
 10
-142.3560421049014
 20
56.6519992375896
 30
0.0
 11
-142.3560421049014
 21
54.83408834868431
 31
0.0
  0
LINE
  5
F9
330
1F
100
AcDbEntity
  8
0
  6
Continuous
 62
     7
100
AcDbLine
 10
-138.696764512261
 20
53.66057794083628
 30
0.0
 11
-137.2330534752049
 21
52.92872242230823
 31
0.0
  0
LINE
  5
FA
330
1F
100
AcDbEntity
  8
0
  6
Continuous
 62
     7
100
AcDbLine
 10
-141.2105291193792
 20
57.87178521448647
 30
0.0
 11
-142.2287628842878
 21
58.38090209694088
 31
0.0
  0
LINE
  5
FB
330
1F
100
AcDbEntity
  8
0
  6
Continuous
 62
     7
100
AcDbLine
 10
-141.7196460018334
 20
58.12634365571368
 30
0.0
 11
-141.7196460018334
 21
58.24298949525929
 31
0.0
  0
LINE
  5
FC
330
1F
100
AcDbEntity
  8
0
  6
Continuous
 62
     7
100
AcDbLine
 10
-148.0516978729224
 20
35.24015888632982
 30
0.0
 11
-146.5516978729224
 21
35.24015888632982
 31
0.0
  0
LINE
  5
FD
330
1F
100
AcDbEntity
  8
0
  6
Continuous
 62
     7
100
AcDbLine
 10
-148.8016978729224
 20
35.24015888632982
 30
0.0
 11
-148.0516978729224
 21
35.24015888632982
 31
0.0
  0
LINE
  5
FE
330
1F
100
AcDbEntity
  8
0
  6
Continuous
 62
     7
100
AcDbLine
 10
-146.5516978729224
 20
35.24015888632982
 30
0.0
 11
-145.8016978729224
 21
35.24015888632982
 31
0.0
  0
LINE
  5
FF
330
1F
100
AcDbEntity
  8
0
  6
Continuous
 62
     7
100
AcDbLine
 10
-145.8016978729224
 20
36.24015888632994
 30
0.0
 11
-145.8016978729224
 21
35.24015888632982
 31
0.0
  0
LINE
  5
100
330
1F
100
AcDbEntity
  8
0
  6
Continuous
 62
     7
100
AcDbLine
 10
-148.8016978729224
 20
36.24015888632994
 30
0.0
 11
-148.8016978729224
 21
35.24015888632982
 31
0.0
  0
LINE
  5
101
330
1F
100
AcDbEntity
  8
0
  6
Continuous
 62
     7
100
AcDbLine
 10
-148.8016978729224
 20
40.24015888632982
 30
0.0
 11
-148.8016978729224
 21
36.24015888632994
 31
0.0
  0
LINE
  5
102
330
1F
100
AcDbEntity
  8
0
  6
Continuous
 62
     7
100
AcDbLine
 10
-148.8016978729224
 20
42.94015888632984
 30
0.0
 11
-148.8016978729224
 21
42.24015888632994
 31
0.0
  0
LINE
  5
103
330
1F
100
AcDbEntity
  8
0
  6
Continuous
 62
     7
100
AcDbLine
 10
-148.8016978729224
 20
42.94015888632984
 30
0.0
 11
-148.8016978729224
 21
43.04015888632992
 31
0.0
  0
LINE
  5
104
330
1F
100
AcDbEntity
  8
0
  6
Continuous
 62
     7
100
AcDbLine
 10
-148.6016978729224
 20
43.24015888632994
 30
0.0
 11
-146.1016978729223
 21
43.24015888632994
 31
0.0
  0
LINE
  5
105
330
1F
100
AcDbEntity
  8
0
  6
Continuous
 62
     7
100
AcDbLine
 10
-148.0516978729224
 20
31.24015888633002
 30
0.0
 11
-146.5516978729223
 21
31.24015888633002
 31
0.0
  0
LINE
  5
106
330
1F
100
AcDbEntity
  8
0
  6
Continuous
 62
     7
100
AcDbLine
 10
-146.6016978729223
 20
40.24015888632982
 30
0.0
 11
-145.8016978729224
 21
40.24015888632982
 31
0.0
  0
LINE
  5
107
330
1F
100
AcDbEntity
  8
0
  6
Continuous
 62
     7
100
AcDbLine
 10
-148.8016978729224
 20
40.24015888632982
 30
0.0
 11
-148.0016978729223
 21
40.24015888632982
 31
0.0
  0
LINE
  5
108
330
1F
100
AcDbEntity
  8
0
  6
Continuous
 62
     7
100
AcDbLine
 10
-145.8016978729224
 20
40.24015888632982
 30
0.0
 11
-145.8016978729224
 21
36.24015888632994
 31
0.0
  0
LINE
  5
109
330
1F
100
AcDbEntity
  8
0
  6
Continuous
 62
     7
100
AcDbLine
 10
-148.0516978729203
 20
32.82468883251633
 30
0.0
 11
-148.0516978729224
 21
32.60145665570883
 31
0.0
  0
LINE
  5
10A
330
1F
100
AcDbEntity
  8
0
  6
Continuous
 62
     7
100
AcDbLine
 10
-148.0516978729224
 20
31.24015888633002
 30
0.0
 11
-148.0516978729224
 21
32.60145665570883
 31
0.0
  0
LINE
  5
10B
330
1F
100
AcDbEntity
  8
0
  6
Continuous
 62
     7
100
AcDbLine
 10
-148.0516978729224
 20
32.94015888632993
 30
0.0
 11
-148.0516978729203
 21
32.82468883251633
 31
0.0
  0
LINE
  5
10C
330
1F
100
AcDbEntity
  8
0
  6
Continuous
 62
     7
100
AcDbLine
 10
-148.0516978729224
 20
32.94015888632993
 30
0.0
 11
-148.0516978729224
 21
33.99015888632982
 31
0.0
  0
LINE
  5
10D
330
1F
100
AcDbEntity
  8
0
  6
Continuous
 62
     7
100
AcDbLine
 10
-148.0516978729224
 20
34.24015888632994
 30
0.0
 11
-148.0516978729224
 21
35.24015888632982
 31
0.0
  0
LINE
  5
10E
330
1F
100
AcDbEntity
  8
0
  6
Continuous
 62
     7
100
AcDbLine
 10
-148.0516978729224
 20
33.99015888632982
 30
0.0
 11
-148.0516978729224
 21
34.24015888632994
 31
0.0
  0
LINE
  5
10F
330
1F
100
AcDbEntity
  8
0
  6
Continuous
 62
     7
100
AcDbLine
 10
-146.8016978729224
 20
42.04015888632992
 30
0.0
 11
-146.8016978729224
 21
40.44015888632984
 31
0.0
  0
LINE
  5
110
330
1F
100
AcDbEntity
  8
0
  6
Continuous
 62
     7
100
AcDbLine
 10
-147.8016978729223
 20
42.04015888632992
 30
0.0
 11
-147.8016978729223
 21
40.44015888632984
 31
0.0
  0
LINE
  5
111
330
1F
100
AcDbEntity
  8
0
  6
Continuous
 62
     7
100
AcDbLine
 10
-146.5516978729223
 20
31.24015888633002
 30
0.0
 11
-146.5516978729239
 21
32.60145665570582
 31
0.0
  0
LINE
  5
112
330
1F
100
AcDbEntity
  8
0
  6
Continuous
 62
     7
100
AcDbLine
 10
-146.5516978729244
 20
32.82468883251232
 30
0.0
 11
-146.5516978729239
 21
32.60145665570582
 31
0.0
  0
LINE
  5
113
330
1F
100
AcDbEntity
  8
0
  6
Continuous
 62
     7
100
AcDbLine
 10
-146.5516978729224
 20
32.94015888632993
 30
0.0
 11
-146.5516978729224
 21
33.99015888632982
 31
0.0
  0
LINE
  5
114
330
1F
100
AcDbEntity
  8
0
  6
Continuous
 62
     7
100
AcDbLine
 10
-146.5516978729224
 20
34.24015888632994
 30
0.0
 11
-146.5516978729224
 21
35.24015888632982
 31
0.0
  0
LINE
  5
115
330
1F
100
AcDbEntity
  8
0
  6
Continuous
 62
     7
100
AcDbLine
 10
-146.5516978729224
 20
33.99015888632982
 30
0.0
 11
-146.5516978729224
 21
34.24015888632994
 31
0.0
  0
LINE
  5
116
330
1F
100
AcDbEntity
  8
0
  6
Continuous
 62
     7
100
AcDbLine
 10
-148.8016978729224
 20
42.24015888632994
 30
0.0
 11
-148.0016978729223
 21
42.24015888632994
 31
0.0
  0
LINE
  5
117
330
1F
100
AcDbEntity
  8
0
  6
Continuous
 62
     7
100
AcDbLine
 10
-145.8016978729224
 20
42.94015888632984
 30
0.0
 11
-145.8016978729224
 21
42.24015888632994
 31
0.0
  0
LINE
  5
118
330
1F
100
AcDbEntity
  8
0
  6
Continuous
 62
     7
100
AcDbLine
 10
-146.6016978729223
 20
42.24015888632994
 30
0.0
 11
-145.8016978729224
 21
42.24015888632994
 31
0.0
  0
LINE
  5
119
330
1F
100
AcDbEntity
  8
0
  6
Continuous
 62
     7
100
AcDbLine
 10
-148.0516978729224
 20
32.94015888632993
 30
0.0
 11
-146.5516978729224
 21
32.94015888632993
 31
0.0
  0
LINE
  5
11A
330
1F
100
AcDbEntity
  8
0
  6
Continuous
 62
     7
100
AcDbLine
 10
-148.0516978729224
 20
32.60145665570883
 30
0.0
 11
-146.5516978729239
 21
32.60145665570582
 31
0.0
  0
LINE
  5
11B
330
1F
100
AcDbEntity
  8
0
  6
Continuous
 62
     7
100
AcDbLine
 10
-146.5516978729244
 20
32.82468883251232
 30
0.0
 11
-148.0516978729203
 21
32.82468883251633
 31
0.0
  0
LINE
  5
11C
330
1F
100
AcDbEntity
  8
0
  6
Continuous
 62
     7
100
AcDbLine
 10
-146.5516978729224
 20
32.94015888632993
 30
0.0
 11
-146.5516978729244
 21
32.82468883251232
 31
0.0
  0
LINE
  5
11D
330
1F
100
AcDbEntity
  8
0
  6
Continuous
 62
     7
100
AcDbLine
 10
-156.1404485651921
 20
32.94015888632993
 30
0.0
 11
-156.1404485651921
 21
35.24015888632982
 31
0.0
  0
LINE
  5
11E
330
1F
100
AcDbEntity
  8
0
  6
Continuous
 62
     7
100
AcDbLine
 10
-156.4036988654336
 20
32.94015888633052
 30
0.0
 11
-156.4036988654324
 21
35.24015888632982
 31
0.0
  0
LINE
  5
11F
330
1F
100
AcDbEntity
  8
0
  6
Continuous
 62
     7
100
AcDbLine
 10
-156.174258186223
 20
35.24015888632982
 30
0.0
 11
-156.1404485651921
 21
35.24015888632982
 31
0.0
  0
LINE
  5
120
330
1F
100
AcDbEntity
  8
0
  6
Continuous
 62
     7
100
AcDbLine
 10
-156.4036988654324
 20
35.24015888632982
 30
0.0
 11
-156.174258186223
 21
35.24015888632982
 31
0.0
  0
LINE
  5
121
330
1F
100
AcDbEntity
  8
0
  6
Continuous
 62
     7
100
AcDbLine
 10
-156.1404485651921
 20
35.24015888632982
 30
0.0
 11
-155.4404485651921
 21
35.24015888632982
 31
0.0
  0
LINE
  5
122
330
1F
100
AcDbEntity
  8
0
  6
Continuous
 62
     7
100
AcDbLine
 10
-156.174258186223
 20
40.24015888632982
 30
0.0
 11
-156.174258186223
 21
35.24015888632982
 31
0.0
  0
LINE
  5
123
330
1F
100
AcDbEntity
  8
0
  6
Continuous
 62
     7
100
AcDbLine
 10
-156.174258186223
 20
40.24015888632982
 30
0.0
 11
-155.5740963919266
 21
40.24015888632982
 31
0.0
  0
LINE
  5
124
330
1F
100
AcDbEntity
  8
0
  6
Continuous
 62
     7
100
AcDbLine
 10
-155.4404485651921
 20
42.94015888632984
 30
0.0
 11
-155.4404485651921
 21
35.24015888632982
 31
0.0
  0
LINE
  5
125
330
1F
100
AcDbEntity
  8
0
  6
Continuous
 62
     7
100
AcDbLine
 10
-157.0904485651922
 20
31.24015888632994
 30
0.0
 11
-157.0904485651922
 21
33.99015888632982
 31
0.0
  0
LINE
  5
126
330
1F
100
AcDbEntity
  8
0
  6
Continuous
 62
     7
100
AcDbLine
 10
-158.2771982649518
 20
35.24015888632982
 30
0.0
 11
-156.4036988654324
 21
35.24015888632982
 31
0.0
  0
LINE
  5
127
330
1F
100
AcDbEntity
  8
0
  6
Continuous
 62
     7
100
AcDbLine
 10
-155.9404485651921
 20
32.82468883249192
 30
0.0
 11
-156.1404485651921
 21
32.94015888632993
 31
0.0
  0
LINE
  5
128
330
1F
100
AcDbEntity
  8
0
  6
Continuous
 62
     7
100
AcDbLine
 10
-156.174258186223
 20
40.24015888632982
 30
0.0
 11
-158.5066389441611
 21
40.24015888632982
 31
0.0
  0
LINE
  5
129
330
1F
100
AcDbEntity
  8
0
  6
Continuous
 62
     7
100
AcDbLine
 10
-156.174258186223
 20
42.24015888632994
 30
0.0
 11
-158.5066389441611
 21
42.24015888632994
 31
0.0
  0
LINE
  5
12A
330
1F
100
AcDbEntity
  8
0
  6
Continuous
 62
     2
100
AcDbLine
 10
-158.5066389441611
 20
42.94015888632984
 30
0.0
 11
-156.174258186223
 21
42.94015888632984
 31
0.0
  0
LINE
  5
12B
330
1F
100
AcDbEntity
  8
0
  6
Continuous
 62
     7
100
AcDbLine
 10
-155.5074182872098
 20
42.04015888632992
 30
0.0
 11
-155.5074182872098
 21
40.44015888632984
 31
0.0
  0
LINE
  5
12C
330
1F
100
AcDbEntity
  8
0
  6
Continuous
 62
     7
100
AcDbLine
 10
-159.1734788431745
 20
42.04015888632992
 30
0.0
 11
-159.1734788431745
 21
40.44015888632984
 31
0.0
  0
LINE
  5
12D
330
1F
100
AcDbEntity
  8
0
  6
Continuous
 62
     2
100
AcDbLine
 10
-156.174258186223
 20
42.94015888632984
 30
0.0
 11
-155.4404485651921
 21
42.94015888632984
 31
0.0
  0
LINE
  5
12E
330
1F
100
AcDbEntity
  8
0
  6
Continuous
 62
     7
100
AcDbLine
 10
-156.174258186223
 20
42.24015888632994
 30
0.0
 11
-155.5740963919266
 21
42.24015888632994
 31
0.0
  0
LINE
  5
12F
330
1F
100
AcDbEntity
  8
0
  6
Continuous
 62
     7
100
AcDbLine
 10
-156.174258186223
 20
42.94015888632984
 30
0.0
 11
-156.174258186223
 21
42.24015888632994
 31
0.0
  0
LINE
  5
130
330
1F
100
AcDbEntity
  8
0
  6
Continuous
 62
     7
100
AcDbLine
 10
-158.5066389441611
 20
42.94015888632984
 30
0.0
 11
-158.5066389441611
 21
42.24015888632994
 31
0.0
  0
LINE
  5
131
330
1F
100
AcDbEntity
  8
0
  6
Continuous
 62
     7
100
AcDbLine
 10
-159.1068007384577
 20
42.24015888632994
 30
0.0
 11
-158.5066389441611
 21
42.24015888632994
 31
0.0
  0
LINE
  5
132
330
1F
100
AcDbEntity
  8
0
  6
Continuous
 62
     7
100
AcDbLine
 10
-158.3987490896179
 20
43.24015888632994
 30
0.0
 11
-156.2821480407662
 21
43.24015888632994
 31
0.0
  0
LINE
  5
133
330
1F
100
AcDbEntity
  8
0
  6
Continuous
 62
     7
100
AcDbLine
 10
-156.9404485651872
 20
31.24015888632633
 30
0.0
 11
-156.490448565192
 21
31.24015888633002
 31
0.0
  0
LINE
  5
134
330
1F
100
AcDbEntity
  8
0
  6
Continuous
 62
     7
100
AcDbLine
 10
-156.9404485651872
 20
31.24015888632633
 30
0.0
 11
-157.0904485651922
 21
31.24015888632994
 31
0.0
  0
LINE
  5
135
330
1F
100
AcDbEntity
  8
0
  6
Continuous
 62
     7
100
AcDbLine
 10
-158.2771982649518
 20
32.94015888632993
 30
0.0
 11
-158.2771982649518
 21
35.24015888632982
 31
0.0
  0
LINE
  5
136
330
1F
100
AcDbEntity
  8
0
  6
Continuous
 62
     7
100
AcDbLine
 10
-158.9404485651921
 20
43.24015888632994
 30
0.0
 11
-158.3987490896179
 21
43.24015888632994
 31
0.0
  0
LINE
  5
137
330
1F
100
AcDbEntity
  8
0
  6
Continuous
 62
     2
100
AcDbLine
 10
-159.2404485651921
 20
42.94015888632984
 30
0.0
 11
-158.5066389441611
 21
42.94015888632984
 31
0.0
  0
LINE
  5
138
330
1F
100
AcDbEntity
  8
0
  6
Continuous
 62
     7
100
AcDbLine
 10
-159.2404485651921
 20
42.94015888632984
 30
0.0
 11
-159.2404485651921
 21
35.24015888632982
 31
0.0
  0
LINE
  5
139
330
1F
100
AcDbEntity
  8
0
  6
Continuous
 62
     7
100
AcDbLine
 10
-159.1068007384577
 20
40.24015888632982
 30
0.0
 11
-158.5066389441611
 21
40.24015888632982
 31
0.0
  0
LINE
  5
13A
330
1F
100
AcDbEntity
  8
0
  6
Continuous
 62
     7
100
AcDbLine
 10
-158.5066389441611
 20
40.24015888632982
 30
0.0
 11
-158.5066389441611
 21
35.24015888632982
 31
0.0
  0
LINE
  5
13B
330
1F
100
AcDbEntity
  8
0
  6
Continuous
 62
     7
100
AcDbLine
 10
-159.2404485651921
 20
35.24015888632982
 30
0.0
 11
-158.5404485651922
 21
35.24015888632982
 31
0.0
  0
LINE
  5
13C
330
1F
100
AcDbEntity
  8
0
  6
Continuous
 62
     7
100
AcDbLine
 10
-158.5404485651922
 20
35.24015888632982
 30
0.0
 11
-158.5066389441611
 21
35.24015888632982
 31
0.0
  0
LINE
  5
13D
330
1F
100
AcDbEntity
  8
0
  6
Continuous
 62
     7
100
AcDbLine
 10
-158.5066389441611
 20
35.24015888632982
 30
0.0
 11
-158.2771982649518
 21
35.24015888632982
 31
0.0
  0
LINE
  5
13E
330
1F
100
AcDbEntity
  8
0
  6
Continuous
 62
     7
100
AcDbLine
 10
-156.2821480407662
 20
43.24015888632994
 30
0.0
 11
-155.7404485651921
 21
43.24015888632994
 31
0.0
  0
LINE
  5
13F
330
1F
100
AcDbEntity
  8
0
  6
Continuous
 62
     7
100
AcDbLine
 10
-155.9404485651921
 20
32.60145665570883
 30
0.0
 11
-156.490448565192
 21
31.24015888633002
 31
0.0
  0
LINE
  5
140
330
1F
100
AcDbEntity
  8
0
  6
Continuous
 62
     7
100
AcDbLine
 10
-156.4036988654336
 20
32.94015888633052
 30
0.0
 11
-156.1404485651921
 21
32.94015888632993
 31
0.0
  0
LINE
  5
141
330
1F
100
AcDbEntity
  8
0
  6
Continuous
 62
     7
100
AcDbLine
 10
-156.1582895234761
 20
32.82468883252352
 30
0.0
 11
-156.158289523435
 21
32.60145665570582
 31
0.0
  0
LINE
  5
142
330
1F
100
AcDbEntity
  8
0
  6
Continuous
 62
     7
100
AcDbLine
 10
-156.158289523435
 20
32.60145665570582
 30
0.0
 11
-155.9404485651921
 21
32.60145665570883
 31
0.0
  0
LINE
  5
143
330
1F
100
AcDbEntity
  8
0
  6
Continuous
 62
     7
100
AcDbLine
 10
-155.9404485651921
 20
32.82468883249192
 30
0.0
 11
-156.1582895234761
 21
32.82468883252352
 31
0.0
  0
LINE
  5
144
330
1F
100
AcDbEntity
  8
0
  6
Continuous
 62
     7
100
AcDbLine
 10
-155.9404485651921
 20
32.82468883249192
 30
0.0
 11
-155.9404485651921
 21
32.60145665570883
 31
0.0
  0
LINE
  5
145
330
1F
100
AcDbEntity
  8
0
  6
Continuous
 62
     7
100
AcDbLine
 10
-158.5404485651922
 20
32.94015888632993
 30
0.0
 11
-158.5404485651922
 21
35.24015888632982
 31
0.0
  0
LINE
  5
146
330
1F
100
AcDbEntity
  8
0
  6
Continuous
 62
     7
100
AcDbLine
 10
-157.5904485651922
 20
33.99015888632982
 30
0.0
 11
-157.5904485651922
 21
31.24015888632994
 31
0.0
  0
LINE
  5
147
330
1F
100
AcDbEntity
  8
0
  6
Continuous
 62
     7
100
AcDbLine
 10
-158.5404485651922
 20
32.94015888632993
 30
0.0
 11
-158.2771982649518
 21
32.94015888632993
 31
0.0
  0
LINE
  5
148
330
1F
100
AcDbEntity
  8
0
  6
Continuous
 62
     7
100
AcDbLine
 10
-158.7404485651921
 20
32.82468883249192
 30
0.0
 11
-158.5404485651922
 21
32.94015888632993
 31
0.0
  0
LINE
  5
149
330
1F
100
AcDbEntity
  8
0
  6
Continuous
 62
     7
100
AcDbLine
 10
-158.7404485651921
 20
32.60145665570883
 30
0.0
 11
-158.1904485651921
 21
31.24015888633002
 31
0.0
  0
LINE
  5
14A
330
1F
100
AcDbEntity
  8
0
  6
Continuous
 62
     7
100
AcDbLine
 10
-157.5904485651922
 20
31.24015888632994
 30
0.0
 11
-157.7404485651923
 21
31.24015888633002
 31
0.0
  0
LINE
  5
14B
330
1F
100
AcDbEntity
  8
0
  6
Continuous
 62
     7
100
AcDbLine
 10
-158.1904485651921
 20
31.24015888633002
 30
0.0
 11
-157.7404485651923
 21
31.24015888633002
 31
0.0
  0
LINE
  5
14C
330
1F
100
AcDbEntity
  8
0
  6
Continuous
 62
     7
100
AcDbLine
 10
-158.5226076069312
 20
32.82468883251232
 30
0.0
 11
-158.5226076069492
 21
32.60145665570582
 31
0.0
  0
LINE
  5
14D
330
1F
100
AcDbEntity
  8
0
  6
Continuous
 62
     7
100
AcDbLine
 10
-158.7404485651921
 20
32.60145665570883
 30
0.0
 11
-158.5226076069492
 21
32.60145665570582
 31
0.0
  0
LINE
  5
14E
330
1F
100
AcDbEntity
  8
0
  6
Continuous
 62
     7
100
AcDbLine
 10
-158.5226076069312
 20
32.82468883251232
 30
0.0
 11
-158.7404485651921
 21
32.82468883249192
 31
0.0
  0
LINE
  5
14F
330
1F
100
AcDbEntity
  8
0
  6
Continuous
 62
     7
100
AcDbLine
 10
-158.7404485651921
 20
32.82468883249192
 30
0.0
 11
-158.7404485651921
 21
32.60145665570883
 31
0.0
  0
ARC
  5
150
330
1F
100
AcDbEntity
  8
0
  6
Continuous
 62
     7
100
AcDbCircle
 10
-157.3404485651922
 20
24.24015785051543
 30
0.0
 40
1.899999999999906
100
AcDbArc
 50
127.8636463617267
 51
232.1363536382733
  0
ARC
  5
151
330
1F
100
AcDbEntity
  8
0
  6
Continuous
 62
     7
100
AcDbCircle
 10
-157.3404485651922
 20
24.24015785051543
 30
0.0
 40
1.90000000000008
100
AcDbArc
 50
307.8636463617335
 51
52.13635363826653
  0
ARC
  5
152
330
1F
100
AcDbEntity
  8
0
  6
Continuous
 62
     7
100
AcDbCircle
 10
-146.1016978729223
 20
42.94015888632984
 30
0.0
 40
0.2999999999998977
100
AcDbArc
 50
0.0
 51
90.0
  0
ARC
  5
153
330
1F
100
AcDbEntity
  8
0
  6
Continuous
 62
     7
100
AcDbCircle
 10
-148.6016978729223
 20
43.04015888632992
 30
0.0
 40
0.2000000000000171
100
AcDbArc
 50
90.00000000002441
 51
180.0
  0
ARC
  5
154
330
1F
100
AcDbEntity
  8
0
  6
Continuous
 62
     7
100
AcDbCircle
 10
-146.6016978729223
 20
42.04015888632992
 30
0.0
 40
0.2000000000000171
100
AcDbArc
 50
90.0
 51
180.0
  0
ARC
  5
155
330
1F
100
AcDbEntity
  8
0
  6
Continuous
 62
     7
100
AcDbCircle
 10
-148.0016978729223
 20
42.04015888632992
 30
0.0
 40
0.2000000000000171
100
AcDbArc
 50
0.0
 51
90.0
  0
ARC
  5
156
330
1F
100
AcDbEntity
  8
0
  6
Continuous
 62
     7
100
AcDbCircle
 10
-148.0016978729223
 20
40.44015888632984
 30
0.0
 40
0.2000000000000171
100
AcDbArc
 50
270.0
 51
0.0
  0
ARC
  5
157
330
1F
100
AcDbEntity
  8
0
  6
Continuous
 62
     7
100
AcDbCircle
 10
-146.6016978729223
 20
40.44015888632984
 30
0.0
 40
0.2000000000001023
100
AcDbArc
 50
180.0
 51
270.0
  0
ARC
  5
158
330
1F
100
AcDbEntity
  8
0
  6
Continuous
 62
     7
100
AcDbCircle
 10
-155.7404485651921
 20
42.94015888632984
 30
0.0
 40
0.3000000000000114
100
AcDbArc
 50
0.0
 51
90.0
  0
ARC
  5
159
330
1F
100
AcDbEntity
  8
0
  6
Continuous
 62
     7
100
AcDbCircle
 10
-157.3404485651922
 20
33.99015888632982
 30
0.0
 40
0.25
100
AcDbArc
 50
0.0
 51
180.0
  0
ARC
  5
15A
330
1F
100
AcDbEntity
  8
0
  6
Continuous
 62
     7
100
AcDbCircle
 10
-158.9404485651921
 20
42.94015888632984
 30
0.0
 40
0.3000000000000966
100
AcDbArc
 50
90.0
 51
180.0
  0
SPLINE
  5
15B
330
1F
100
AcDbEntity
  8
0
  6
Continuous
 62
     7
100
AcDbSpline
210
0.0
220
0.0
230
1.0
 70
     8
 71
     3
 72
    15
 73
    11
 74
     9
 42
0.0000000001
 43
0.0000000001
 44
0.00000001
 40
0.0
 40
0.0
 40
0.0
 40
0.0
 40
0.0078016952093554
 40
0.0168436664911618
 40
0.0265829242543136
 40
0.0402869445700087
 40
0.0563891899861653
 40
0.0715935925680984
 40
0.0885342016333494
 40
0.1105158127723333
 40
0.1105158127723333
 40
0.1105158127723333
 40
0.1105158127723333
 10
-144.1533927522643
 20
57.58279113713429
 30
0.0
 10
-144.1531146791993
 20
57.58018696660447
 30
0.0
 10
-144.1525143263477
 20
57.5745646270086
 30
0.0
 10
-144.1484257312066
 20
57.56652582849306
 30
0.0
 10
-144.142061293796
 20
57.55776400360013
 30
0.0
 10
-144.1327492358694
 20
57.54835091271957
 30
0.0
 10
-144.1210706956329
 20
57.53890608118768
 30
0.0
 10
-144.1077954902253
 20
57.52980813683495
 30
0.0
 10
-144.0923516938744
 20
57.52045724957161
 30
0.0
 10
-144.0808226792741
 20
57.51449896303177
 30
0.0
 10
-144.0743115831847
 20
57.51113397673124
 30
0.0
 11
-144.1533927522643
 21
57.58279113713429
 31
0.0
 11
-144.1521315392098
 21
57.57509205993175
 31
0.0
 11
-144.1483496563753
 21
57.56687898457063
 31
0.0
 11
-144.1426780021129
 21
57.55896156834404
 31
0.0
 11
-144.1331628423269
 21
57.54909942318898
 31
0.0
 11
-144.1207078129754
 21
57.53889380947417
 31
0.0
 11
-144.1082000122708
 21
57.53024922854696
 31
0.0
 11
-144.0937098124983
 21
57.52147321885833
 31
0.0
 11
-144.0743115831847
 21
57.51113397673124
 31
0.0
  0
SPLINE
  5
15C
330
1F
100
AcDbEntity
  8
0
  6
Continuous
 62
     7
100
AcDbSpline
210
0.0
220
0.0
230
1.0
 70
     8
 71
     3
 72
     9
 73
     5
 74
     3
 42
0.0000000001
 43
0.0000000001
 44
0.00000001
 40
0.0
 40
0.0
 40
0.0
 40
0.0
 40
0.1676458506061148
 40
0.3292281970639235
 40
0.3292281970639235
 40
0.3292281970639235
 40
0.3292281970639235
 10
-142.2287628842878
 20
58.45621087824956
 30
0.0
 10
-142.1724070069361
 20
58.45410388081744
 30
0.0
 10
-142.0617335615309
 20
58.4499660929552
 30
0.0
 10
-141.9596209118291
 20
58.40719778505749
 30
0.0
 10
-141.9095049081303
 20
58.38620747011556
 30
0.0
 11
-142.2287628842878
 21
58.45621087824956
 31
0.0
 11
-142.0619150106069
 21
58.43987324458944
 31
0.0
 11
-141.9095049081303
 21
58.38620747011556
 31
0.0
  0
SPLINE
  5
15D
330
1F
100
AcDbEntity
  8
0
  6
Continuous
 62
     7
100
AcDbSpline
210
0.0
220
0.0
230
1.0
 70
     8
 71
     3
 72
    11
 73
     7
 74
     5
 42
0.0000000001
 43
0.0000000001
 44
0.00000001
 40
0.0
 40
0.0
 40
0.0
 40
0.0
 40
0.002380188300861
 40
0.0047350624574652
 40
0.0071021260542963
 40
0.0095035639618125
 40
0.0095035639618125
 40
0.0095035639618125
 40
0.0095035639618125
 10
-144.1512407976339
 20
57.59196477851609
 30
0.0
 10
-144.151572356441
 20
57.5912428880945
 30
0.0
 10
-144.1522319478101
 20
57.58980678481122
 30
0.0
 10
-144.1528927123498
 20
57.58752617355773
 30
0.0
 10
-144.1533172916987
 20
57.58518289398957
 30
0.0
 10
-144.1533674781508
 20
57.58359221162712
 30
0.0
 10
-144.1533927522643
 20
57.58279113713429
 30
0.0
 11
-144.1512407976339
 21
57.59196477851609
 31
0.0
 11
-144.152180123783
 21
57.58977777994882
 31
0.0
 11
-144.152852313587
 21
57.58752088093451
 31
0.0
 11
-144.153257574916
 21
57.58518876744528
 31
0.0
 11
-144.1533927522643
 21
57.58279113713429
 31
0.0
  0
SPLINE
  5
15E
330
1F
100
AcDbEntity
  8
0
  6
Continuous
 62
     7
100
AcDbSpline
210
0.0
220
0.0
230
1.0
 70
     8
 71
     3
 72
     9
 73
     5
 74
     3
 42
0.0000000001
 43
0.0000000001
 44
0.00000001
 40
0.0
 40
0.0
 40
0.0
 40
0.0
 40
0.1181748984560056
 40
0.2387833542556649
 40
0.2387833542556649
 40
0.2387833542556649
 40
0.2387833542556649
 10
-141.9095049081303
 20
58.38620747011556
 30
0.0
 10
-141.8749820766815
 20
58.36683420093032
 30
0.0
 10
-141.8052254904738
 20
58.32768871183414
 30
0.0
 10
-141.7483656601123
 20
58.27141374264812
 30
0.0
 10
-141.7196460018334
 20
58.24298949525929
 30
0.0
 11
-141.9095049081303
 21
58.38620747011556
 31
0.0
 11
-141.8090952190736
 21
58.323892135176
 31
0.0
 11
-141.7196460018334
 21
58.24298949525929
 31
0.0
  0
SPLINE
  5
15F
330
1F
100
AcDbEntity
  8
0
  6
Continuous
 62
     7
100
AcDbSpline
210
0.0
220
0.0
230
1.0
 70
     8
 71
     3
 72
    11
 73
     7
 74
     5
 42
0.0000000001
 43
0.0000000001
 44
0.00000001
 40
0.0
 40
0.0
 40
0.0
 40
0.0
 40
0.3125576598281662
 40
0.5928365584642621
 40
0.8443952418783095
 40
1.078544978813142
 40
1.078544978813142
 40
1.078544978813142
 40
1.078544978813142
 10
-137.9762526331994
 20
53.30032200130541
 30
0.0
 10
-138.0628386459298
 20
53.24153412474063
 30
0.0
 10
-138.2270686757631
 20
53.13002957085691
 30
0.0
 10
-138.4956960270666
 20
53.03836627755923
 30
0.0
 10
-138.7567047811891
 20
53.01577482356953
 30
0.0
 10
-138.9102039747898
 20
53.07252301540836
 30
0.0
 10
-138.9842026832649
 20
53.09988011615832
 30
0.0
 11
-137.9762526331994
 21
53.30032200130541
 31
0.0
 11
-138.2427844010077
 21
53.13706420680155
 31
0.0
 11
-138.5081736672142
 21
53.04692654318067
 31
0.0
 11
-138.7594165851391
 21
53.03432624978844
 31
0.0
 11
-138.9842026832649
 21
53.09988011615832
 31
0.0
  0
SPLINE
  5
160
330
1F
100
AcDbEntity
  8
0
  6
Continuous
 62
     7
100
AcDbSpline
210
0.0
220
0.0
230
1.0
 70
     8
 71
     3
 72
     9
 73
     5
 74
     3
 42
0.0000000001
 43
0.0000000001
 44
0.00000001
 40
0.0
 40
0.0
 40
0.0
 40
0.0
 40
0.1676458506061652
 40
0.3292281970638848
 40
0.3292281970638848
 40
0.3292281970638848
 40
0.3292281970638848
 10
-143.1197174285828
 20
55.25726306876204
 30
0.0
 10
-143.1760733059345
 20
55.25937006619414
 30
0.0
 10
-143.2867467513396
 20
55.26350785405636
 30
0.0
 10
-143.3888594010414
 20
55.30627616195396
 30
0.0
 10
-143.4389754047403
 20
55.32726647689587
 30
0.0
 11
-143.1197174285828
 21
55.25726306876204
 31
0.0
 11
-143.2865653022637
 21
55.2736007024221
 31
0.0
 11
-143.4389754047403
 21
55.32726647689587
 31
0.0
  0
SPLINE
  5
161
330
1F
100
AcDbEntity
  8
0
  6
Continuous
 62
     7
100
AcDbSpline
210
0.0
220
0.0
230
1.0
 70
     8
 71
     3
 72
    17
 73
    13
 74
    11
 42
0.0000000001
 43
0.0000000001
 44
0.00000001
 40
0.0
 40
0.0
 40
0.0
 40
0.0
 40
0.0301416495409094
 40
0.0646509871434018
 40
0.0943861127302249
 40
0.1368074115174806
 40
0.1722777084377765
 40
0.2055882217088214
 40
0.2210271685072185
 40
0.2356784124793172
 40
0.2478093015474134
 40
0.26173430632276
 40
0.26173430632276
 40
0.26173430632276
 40
0.26173430632276
 10
-142.8651589873556
 20
55.20529262945713
 30
0.0
 10
-142.8742907033794
 20
55.20949785297465
 30
0.0
 10
-142.8938773704743
 20
55.2185176596444
 30
0.0
 10
-142.9237864851206
 20
55.22846038133634
 30
0.0
 10
-142.9580680725477
 20
55.23790279259141
 30
0.0
 10
-142.9931858509956
 20
55.24538121729653
 30
0.0
 10
-143.0298005225243
 20
55.25122119299328
 30
0.0
 10
-143.057703953636
 20
55.25439940248976
 30
0.0
 10
-143.0787726266161
 20
55.25607619364976
 30
0.0
 10
-143.0928258056248
 20
55.25685366673096
 30
0.0
 10
-143.1063893661274
 20
55.25731260326401
 30
0.0
 10
-143.1150753785101
 20
55.25728032120509
 30
0.0
 10
-143.1197174285828
 20
55.25726306876204
 30
0.0
 11
-142.8651589873556
 21
55.20529262945713
 31
0.0
 11
-142.8927497541665
 21
55.21742805791419
 31
0.0
 11
-142.9253829809657
 21
55.22865155516022
 31
0.0
 11
-142.9540508701531
 21
55.23654647904868
 31
0.0
 11
-142.995522527447
 21
55.24547218530044
 31
0.0
 11
-143.0305492398434
 21
55.2510642674097
 31
0.0
 11
-143.0636477041532
 21
55.25481686047468
 31
0.0
 11
-143.0790386473137
 21
55.25603339114593
 31
0.0
 11
-143.0936675136017
 21
55.25684284840705
 31
0.0
 11
-143.1057924852425
 21
55.25722170496548
 31
0.0
 11
-143.1197174285828
 21
55.25726306876204
 31
0.0
  0
SPLINE
  5
162
330
1F
100
AcDbEntity
  8
0
  6
Continuous
 62
     7
100
AcDbSpline
210
0.0
220
0.0
230
1.0
 70
     8
 71
     3
 72
     9
 73
     5
 74
     3
 42
0.0000000001
 43
0.0000000001
 44
0.00000001
 40
0.0
 40
0.0
 40
0.0
 40
0.0
 40
0.1181748984561363
 40
0.238783354255784
 40
0.238783354255784
 40
0.238783354255784
 40
0.238783354255784
 10
-143.4389754047403
 20
55.32726647689587
 30
0.0
 10
-143.4734982361891
 20
55.34663974608117
 30
0.0
 10
-143.5432548223968
 20
55.38578523517742
 30
0.0
 10
-143.6001146527583
 20
55.44206020436348
 30
0.0
 10
-143.6288343110372
 20
55.47048445175231
 30
0.0
 11
-143.4389754047403
 21
55.32726647689587
 31
0.0
 11
-143.539385093797
 21
55.38958181183558
 31
0.0
 11
-143.6288343110372
 21
55.47048445175231
 31
0.0
  0
SPLINE
  5
163
330
1F
100
AcDbEntity
  8
0
  6
Continuous
 62
     2
100
AcDbSpline
210
0.0
220
0.0
230
1.0
 70
     8
 71
     3
 72
     9
 73
     5
 74
     3
 42
0.0000000001
 43
0.0000000001
 44
0.00000001
 40
0.0
 40
0.0
 40
0.0
 40
0.0
 40
0.1181748984562217
 40
0.2387833542558837
 40
0.2387833542558837
 40
0.2387833542558837
 40
0.2387833542558837
 10
-143.8844526768877
 20
55.55000511296968
 30
0.0
 10
-143.9189755083365
 20
55.56937838215495
 30
0.0
 10
-143.9887320945443
 20
55.60852387125117
 30
0.0
 10
-144.0455919249058
 20
55.66479884043729
 30
0.0
 10
-144.0743115831847
 20
55.69322308782612
 30
0.0
 11
-143.8844526768877
 21
55.55000511296968
 31
0.0
 11
-143.9848623659445
 21
55.61232044790937
 31
0.0
 11
-144.0743115831847
 21
55.69322308782612
 31
0.0
  0
SPLINE
  5
164
330
1F
100
AcDbEntity
  8
0
  6
Continuous
 62
     7
100
AcDbSpline
210
0.0
220
0.0
230
1.0
 70
     8
 71
     3
 72
    21
 73
    17
 74
    15
 42
0.0000000001
 43
0.0000000001
 44
0.00000001
 40
0.0
 40
0.0
 40
0.0
 40
0.0
 40
0.0182512959134975
 40
0.0341333500558573
 40
0.0516856022424306
 40
0.0694170966738741
 40
0.0859704871178207
 40
0.1054863771543828
 40
0.1237753418981505
 40
0.1418846944667791
 40
0.1582690718066298
 40
0.1777129330222288
 40
0.1968572861541885
 40
0.2124275050560655
 40
0.2449112739197536
 40
0.2750104268887636
 40
0.2750104268887636
 40
0.2750104268887636
 40
0.2750104268887636
 10
-143.1197174285829
 20
58.0107336061021
 30
0.0
 10
-143.1152785344032
 20
58.0148991356308
 30
0.0
 10
-143.1069769688806
 20
58.02268945793147
 30
0.0
 10
-143.0932998043457
 20
58.03320229782997
 30
0.0
 10
-143.0791145120836
 20
58.04269215300312
 30
0.0
 10
-143.0640659919497
 20
58.05121746308038
 30
0.0
 10
-143.0478864636002
 20
58.05897995714888
 30
0.0
 10
-143.0310197701359
 20
58.06565012090944
 30
0.0
 10
-143.0132199187945
 20
58.0712269823678
 30
0.0
 10
-142.9960888569664
 20
58.07530121634151
 30
0.0
 10
-142.9783460675154
 20
58.07828212794708
 30
0.0
 10
-142.9600877990832
 20
58.08002480108947
 30
0.0
 10
-142.9420099239977
 20
58.08031712307805
 30
0.0
 10
-142.919661273093
 20
58.07891003279531
 30
0.0
 10
-142.893711075791
 20
58.07473679422868
 30
0.0
 10
-142.8744314780637
 20
58.06661176486839
 30
0.0
 10
-142.8651589873556
 20
58.06270404540704
 30
0.0
 11
-143.1197174285829
 21
58.0107336061021
 31
0.0
 11
-143.1061917797059
 21
58.02298785536423
 31
0.0
 11
-143.0936465714777
 21
58.03272733144315
 31
0.0
 11
-143.0790501526066
 21
58.04247546526249
 31
0.0
 11
-143.0636283682424
 21
58.05122614876706
 31
0.0
 11
-143.048704771588
 21
58.05838862027392
 31
0.0
 11
-143.0305579240402
 21
58.06556928096749
 31
0.0
 11
-143.0131056170413
 21
58.07103766389243
 31
0.0
 11
-142.9954872446169
 21
58.07522593365102
 31
0.0
 11
-142.9793286316558
 21
58.07793647750546
 31
0.0
 11
-142.9599720380806
 21
58.07977659275654
 31
0.0
 11
-142.9408297585525
 21
58.08005835739124
 31
0.0
 11
-142.9252890344516
 21
58.07910043721083
 31
0.0
 11
-142.893323569536
 21
58.07332079255748
 31
0.0
 11
-142.8651589873556
 21
58.06270404540704
 31
0.0
  0
SPLINE
  5
165
330
1F
100
AcDbEntity
  8
0
  6
Continuous
 62
     7
100
AcDbSpline
210
0.0
220
0.0
230
1.0
 70
     8
 71
     3
 72
     9
 73
     5
 74
     3
 42
0.0000000001
 43
0.0000000001
 44
0.00000001
 40
0.0
 40
0.0
 40
0.0
 40
0.0
 40
0.1676458506061162
 40
0.3292281970638153
 40
0.3292281970638153
 40
0.3292281970638153
 40
0.3292281970638153
 10
-140.955970678152
 20
57.81981477518173
 30
0.0
 10
-140.8996148008003
 20
57.81770777774961
 30
0.0
 10
-140.7889413553952
 20
57.81356998988736
 30
0.0
 10
-140.6868287056935
 20
57.77080168198966
 30
0.0
 10
-140.6367127019946
 20
57.74981136704773
 30
0.0
 11
-140.955970678152
 21
57.81981477518173
 31
0.0
 11
-140.7891228044711
 21
57.8034771415216
 31
0.0
 11
-140.6367127019946
 21
57.74981136704773
 31
0.0
  0
SPLINE
  5
166
330
1F
100
AcDbEntity
  8
0
  6
Continuous
 62
     7
100
AcDbSpline
210
0.0
220
0.0
230
1.0
 70
     8
 71
     3
 72
    17
 73
    13
 74
    11
 42
0.0000000001
 43
0.0000000001
 44
0.00000001
 40
0.0
 40
0.0
 40
0.0
 40
0.0
 40
0.0111602118570072
 40
0.0260768912718616
 40
0.0407275027819679
 40
0.0561655358761667
 40
0.0894842402106996
 40
0.1249628019012119
 40
0.1674280283596586
 40
0.1971815167534195
 40
0.2356331841799496
 40
0.261734129254909
 40
0.261734129254909
 40
0.261734129254909
 40
0.261734129254909
 10
-140.955970678152
 20
57.81981477518173
 30
0.0
 10
-140.9596909084532
 20
57.81979406302749
 30
0.0
 10
-140.9683835786563
 20
57.81974566711879
 30
0.0
 10
-140.9819559070996
 20
57.82017338213562
 30
0.0
 10
-140.9969356377885
 20
57.8210031441173
 30
0.0
 10
-141.0180065200786
 20
57.82268054103003
 30
0.0
 10
-141.0459149910778
 20
57.8258603475794
 30
0.0
 10
-141.0825492575727
 20
57.83170475211464
 30
0.0
 10
-141.1176897507528
 20
57.83919178285413
 30
0.0
 10
-141.15325626892
 20
57.84899139288272
 30
0.0
 10
-141.1831144769712
 20
57.85903987901258
 30
0.0
 10
-141.2026359037695
 20
57.86811558132414
 30
0.0
 10
-141.2105291193792
 20
57.87178521448647
 30
0.0
 11
-140.955970678152
 21
57.81981477518173
 31
0.0
 11
-140.967130889575
 21
57.81981166276486
 31
0.0
 11
-140.9820415352572
 21
57.82023589160128
 31
0.0
 11
-140.9966697421014
 21
57.82104581884737
 31
0.0
 11
-141.0120597384924
 21
57.82226273170435
 31
0.0
 11
-141.0451662231171
 21
57.82601729350696
 31
0.0
 11
-141.0802008621179
 21
57.83161214915382
 31
0.0
 11
-141.1217147027441
 21
57.84055063306491
 31
0.0
 11
-141.1503990722832
 21
57.84845487342958
 31
0.0
 11
-141.1866996289742
 21
57.8611355797114
 31
0.0
 11
-141.2105291193792
 21
57.87178521448647
 31
0.0
  0
SPLINE
  5
167
330
1F
100
AcDbEntity
  8
0
  6
Continuous
 62
     7
100
AcDbSpline
210
0.0
220
0.0
230
1.0
 70
     8
 71
     3
 72
    13
 73
     9
 74
     7
 42
0.0000000001
 43
0.0000000001
 44
0.00000001
 40
0.0
 40
0.0
 40
0.0
 40
0.0
 40
0.0295375108607571
 40
0.0539937325962564
 40
0.0677208101121348
 40
0.0847749526753264
 40
0.1023877353537346
 40
0.1179182681378294
 40
0.1179182681378294
 40
0.1179182681378294
 40
0.1179182681378294
 10
-141.7942044430606
 20
57.47670249883274
 30
0.0
 10
-141.7951900520665
 20
57.46683808842806
 30
0.0
 10
-141.7969917173918
 20
57.44880622582052
 30
0.0
 10
-141.8063632115494
 20
57.4279696699399
 30
0.0
 10
-141.815563985268
 20
57.41203499766306
 30
0.0
 10
-141.824880129767
 20
57.39883039981217
 30
0.0
 10
-141.8355591257449
 20
57.38592327250278
 30
0.0
 10
-141.8432986027361
 20
57.37803421449304
 30
0.0
 10
-141.846925222447
 20
57.37433750303413
 30
0.0
 11
-141.7942044430606
 21
57.47670249883274
 31
0.0
 11
-141.7988581878361
 21
57.44753389915065
 31
0.0
 11
-141.8082894243066
 21
57.42496935704998
 31
0.0
 11
-141.8151685906391
 21
57.41309039549199
 31
0.0
 11
-141.82494234114
 21
57.39911478889648
 31
0.0
 11
-141.8361965565505
 21
57.38556662484484
 31
0.0
 11
-141.846925222447
 21
57.37433750303413
 31
0.0
  0
SPLINE
  5
168
330
1F
100
AcDbEntity
  8
0
  6
Continuous
 62
     7
100
AcDbSpline
210
0.0
220
0.0
230
1.0
 70
     8
 71
     3
 72
    15
 73
    11
 74
     9
 42
0.0000000001
 43
0.0000000001
 44
0.00000001
 40
0.0
 40
0.0
 40
0.0
 40
0.0
 40
0.0149397516769914
 40
0.0268245121217809
 40
0.0404694808833897
 40
0.0515557658535931
 40
0.0624588767641308
 40
0.0749205501773878
 40
0.0857352861984361
 40
0.0984289254078472
 40
0.0984289254078472
 40
0.0984289254078472
 40
0.0984289254078472
 10
-141.846925222447
 20
57.55358716295246
 30
0.0
 10
-141.8425382280036
 20
57.55121637782298
 30
0.0
 10
-141.8346613242792
 20
57.5469596032916
 30
0.0
 10
-141.8238254871097
 20
57.53886050491901
 30
0.0
 10
-141.814958933772
 20
57.53041524972317
 30
0.0
 10
-141.8075809308917
 20
57.52106250044829
 30
0.0
 10
-141.8017228336601
 20
57.51114045560753
 30
0.0
 10
-141.7975027816329
 20
57.50050914717636
 30
0.0
 10
-141.7947215457529
 20
57.48878500675875
 30
0.0
 10
-141.79438575659
 20
57.48093903093547
 30
0.0
 10
-141.7942044430606
 20
57.47670249883274
 30
0.0
 11
-141.846925222447
 21
57.55358716295246
 31
0.0
 11
-141.833979679873
 21
57.54613001151004
 31
0.0
 11
-141.8244384454796
 21
57.53904394228375
 31
0.0
 11
-141.8146036106004
 21
57.52958554942853
 31
0.0
 11
-141.807749845267
 21
57.52087167456163
 31
0.0
 11
-141.8022248165258
 21
57.51147210622385
 31
0.0
 11
-141.7976073137869
 21
57.49989747997871
 31
0.0
 11
-141.7951804452972
 21
57.48935856046395
 31
0.0
 11
-141.7942044430606
 21
57.47670249883274
 31
0.0
  0
SPLINE
  5
169
330
1F
100
AcDbEntity
  8
0
  6
Continuous
 62
     7
100
AcDbSpline
210
0.0
220
0.0
230
1.0
 70
     8
 71
     3
 72
     9
 73
     5
 74
     3
 42
0.0000000001
 43
0.0000000001
 44
0.00000001
 40
0.0
 40
0.0
 40
0.0
 40
0.0
 40
0.4523721550889818
 40
0.8869215599080926
 40
0.8869215599080926
 40
0.8869215599080926
 40
0.8869215599080926
 10
-142.3560421049014
 20
56.6519992375896
 30
0.0
 10
-142.2850420919372
 20
56.78581357372865
 30
0.0
 10
-142.1458393546703
 20
57.04817017196615
 30
0.0
 10
-141.9452194428399
 20
57.2670814048146
 30
0.0
 10
-141.846925222447
 20
57.37433750303413
 30
0.0
 11
-142.3560421049014
 21
56.6519992375896
 31
0.0
 11
-142.1270644809312
 21
57.04213999990596
 31
0.0
 11
-141.846925222447
 21
57.37433750303413
 31
0.0
  0
SPLINE
  5
16A
330
1F
100
AcDbEntity
  8
0
  6
Continuous
 62
     7
100
AcDbSpline
210
0.0
220
0.0
230
1.0
 70
     8
 71
     3
 72
    13
 73
     9
 74
     7
 42
0.0000000001
 43
0.0000000001
 44
0.00000001
 40
0.0
 40
0.0
 40
0.0
 40
0.0
 40
0.1503467375296731
 40
0.3125632377409338
 40
0.4937760159516797
 40
0.6959547445878677
 40
0.9169247795257415
 40
1.151677215241762
 40
1.151677215241762
 40
1.151677215241762
 40
1.151677215241762
 10
-137.7421703576591
 20
55.59812328470006
 30
0.0
 10
-137.789980107362
 20
55.61483980039198
 30
0.0
 10
-137.889374150813
 20
55.64959258820947
 30
0.0
 10
-138.0575574960067
 20
55.6317999639741
 30
0.0
 10
-138.2289167002186
 20
55.56796155279114
 30
0.0
 10
-138.3985166839194
 20
55.45662911086729
 30
0.0
 10
-138.5602411929551
 20
55.30666713277256
 30
0.0
 10
-138.6503483696273
 20
55.18400969094741
 30
0.0
 10
-138.696764512261
 20
55.1208262073991
 30
0.0
 11
-137.7421703576591
 21
55.59812328470006
 31
0.0
 11
-137.8872347278961
 21
55.63762606907732
 31
0.0
 11
-138.0490539729524
 21
55.62628037076529
 31
0.0
 11
-138.2194674349601
 21
55.56465794827611
 31
0.0
 11
-138.3898808969677
 21
55.45586690875761
 31
0.0
 11
-138.5517001420241
 21
55.30539336201326
 31
0.0
 11
-138.696764512261
 21
55.1208262073991
 31
0.0
  0
SPLINE
  5
16B
330
1F
100
AcDbEntity
  8
0
  6
Continuous
 62
     7
100
AcDbSpline
210
0.0
220
0.0
230
1.0
 70
     8
 71
     3
 72
    13
 73
     9
 74
     7
 42
0.0000000001
 43
0.0000000001
 44
0.00000001
 40
0.0
 40
0.0
 40
0.0
 40
0.0
 40
0.4514650757758453
 40
0.8852171674924283
 40
1.284590258821773
 40
1.639272621218632
 40
1.949662378903227
 40
2.231186047222727
 40
2.231186047222727
 40
2.231186047222727
 40
2.231186047222727
 10
-139.1740615895619
 20
55.06100897991988
 30
0.0
 10
-139.1023846440387
 20
55.19373075584234
 30
0.0
 10
-138.961842958546
 20
55.45396704177151
 30
0.0
 10
-138.6830087362631
 20
55.78268970023802
 30
0.0
 10
-138.375828321608
 20
56.0375106645017
 30
0.0
 10
-138.055656292836
 20
56.19457676377775
 30
0.0
 10
-137.7342007502251
 20
56.25439407368077
 30
0.0
 10
-137.544809669862
 20
56.18962590537024
 30
0.0
 10
-137.4547321866551
 20
56.15882110937802
 30
0.0
 11
-139.1740615895619
 21
55.06100897991988
 31
0.0
 11
-138.9456082218748
 21
55.45040565869066
 31
0.0
 11
-138.666163254495
 21
55.78214559791203
 31
0.0
 11
-138.3553495770581
 21
56.03293180964658
 31
0.0
 11
-138.0349938825358
 21
56.18515469617319
 31
0.0
 11
-137.7275926351475
 21
56.22812299587913
 31
0.0
 11
-137.4547321866551
 21
56.15882110937802
 31
0.0
  0
SPLINE
  5
16C
330
1F
100
AcDbEntity
  8
0
  6
Continuous
 62
     7
100
AcDbSpline
210
0.0
220
0.0
230
1.0
 70
     8
 71
     3
 72
     9
 73
     5
 74
     3
 42
0.0000000001
 43
0.0000000001
 44
0.00000001
 40
0.0
 40
0.0
 40
0.0
 40
0.0
 40
0.1181748984560972
 40
0.238783354255785
 40
0.238783354255785
 40
0.238783354255785
 40
0.238783354255785
 10
-137.4547321866551
 20
56.15882110937802
 30
0.0
 10
-137.4202093552063
 20
56.13944784019273
 30
0.0
 10
-137.3504527689986
 20
56.10030235109649
 30
0.0
 10
-137.2935929386371
 20
56.04402738191042
 30
0.0
 10
-137.2648732803582
 20
56.01560313452158
 30
0.0
 11
-137.4547321866551
 21
56.15882110937802
 31
0.0
 11
-137.3543224975984
 21
56.09650577443833
 31
0.0
 11
-137.2648732803582
 21
56.01560313452158
 31
0.0
  0
SPLINE
  5
16D
330
1F
100
AcDbEntity
  8
0
  6
Continuous
 62
     7
100
AcDbSpline
210
0.0
220
0.0
230
1.0
 70
     8
 71
     3
 72
     9
 73
     5
 74
     3
 42
0.0000000001
 43
0.0000000001
 44
0.00000001
 40
0.0
 40
0.0
 40
0.0
 40
0.0
 40
0.11817489845619
 40
0.2387833542557901
 40
0.2387833542557901
 40
0.2387833542557901
 40
0.2387833542557901
 10
-138.9842026832649
 20
53.09988011615832
 30
0.0
 10
-139.0187255147137
 20
53.1192533853436
 30
0.0
 10
-139.0884821009215
 20
53.1583988744398
 30
0.0
 10
-139.1453419312829
 20
53.21467384362583
 30
0.0
 10
-139.1740615895619
 20
53.24309809101465
 30
0.0
 11
-138.9842026832649
 21
53.09988011615832
 31
0.0
 11
-139.0846123723217
 21
53.16219545109799
 31
0.0
 11
-139.1740615895619
 21
53.24309809101465
 31
0.0
  0
SPLINE
  5
16E
330
1F
100
AcDbEntity
  8
0
  6
Continuous
 62
     7
100
AcDbSpline
210
0.0
220
0.0
230
1.0
 70
     8
 71
     3
 72
     9
 73
     5
 74
     3
 42
0.0000000001
 43
0.0000000001
 44
0.00000001
 40
0.0
 40
0.0
 40
0.0
 40
0.0
 40
0.1181748984561026
 40
0.2387833542556788
 40
0.2387833542556788
 40
0.2387833542556788
 40
0.2387833542556788
 10
-142.1661831986045
 20
54.69087037382804
 30
0.0
 10
-142.2007060300533
 20
54.71024364301333
 30
0.0
 10
-142.270462616261
 20
54.74938913210954
 30
0.0
 10
-142.3273224466225
 20
54.80566410129552
 30
0.0
 10
-142.3560421049014
 20
54.83408834868431
 30
0.0
 11
-142.1661831986045
 21
54.69087037382804
 31
0.0
 11
-142.2665928876612
 21
54.75318570876769
 31
0.0
 11
-142.3560421049014
 21
54.83408834868431
 31
0.0
  0
SPLINE
  5
16F
330
1F
100
AcDbEntity
  8
0
  6
Continuous
 62
     7
100
AcDbSpline
210
0.0
220
0.0
230
1.0
 70
     8
 71
     3
 72
    11
 73
     7
 74
     5
 42
0.0000000001
 43
0.0000000001
 44
0.00000001
 40
0.0
 40
0.0
 40
0.0
 40
0.0
 40
0.3322108695513321
 40
0.6319361182753406
 40
0.8932988576058016
 40
1.122403866421113
 40
1.122403866421113
 40
1.122403866421113
 40
1.122403866421113
 10
-137.0175046955355
 20
54.47247395108278
 30
0.0
 10
-136.9446584635586
 20
54.55659017584403
 30
0.0
 10
-136.8060893519317
 20
54.71659722387162
 30
0.0
 10
-136.5577958944392
 20
54.88409806974606
 30
0.0
 10
-136.3039817328234
 20
54.98104355224717
 30
0.0
 10
-136.1396652776987
 20
54.95972789763022
 30
0.0
 10
-136.0629105409354
 20
54.94977102838167
 30
0.0
 11
-137.0175046955355
 21
54.47247395108278
 31
0.0
 11
-136.7887189046438
 21
54.71334969443216
 31
0.0
 11
-136.5402076182353
 21
54.8809127131751
 31
0.0
 11
-136.2916963318268
 21
54.96186098083997
 31
0.0
 11
-136.0629105409354
 21
54.94977102838167
 31
0.0
  0
SPLINE
  5
170
330
1F
100
AcDbEntity
  8
0
  6
Continuous
 62
     7
100
AcDbSpline
210
0.0
220
0.0
230
1.0
 70
     8
 71
     3
 72
    11
 73
     7
 74
     5
 42
0.0000000001
 43
0.0000000001
 44
0.00000001
 40
0.0
 40
0.0
 40
0.0
 40
0.0
 40
0.0434165748174315
 40
0.0852338138267291
 40
0.1290210735115966
 40
0.1711267637630192
 40
0.1711267637630192
 40
0.1711267637630192
 40
0.1711267637630192
 10
-137.1595687829216
 20
54.54350599477258
 30
0.0
 10
-137.1659818728504
 20
54.53053219806566
 30
0.0
 10
-137.1785718137967
 20
54.50506252023423
 30
0.0
 10
-137.1972247749115
 20
54.46631049956839
 30
0.0
 10
-137.2153843578005
 20
54.4278068300691
 30
0.0
 10
-137.2272411448288
 20
54.40174600062024
 30
0.0
 10
-137.2330534752047
 20
54.38897068887133
 30
0.0
 11
-137.1595687829216
 21
54.54350599477258
 31
0.0
 11
-137.1787386614686
 21
54.50455070340708
 31
0.0
 11
-137.1968913603017
 21
54.46687895001762
 31
0.0
 11
-137.2155307789498
 21
54.42725703457717
 31
0.0
 11
-137.2330534752047
 21
54.38897068887133
 31
0.0
  0
SPLINE
  5
171
330
1F
100
AcDbEntity
  8
0
  6
Continuous
 62
     7
100
AcDbSpline
210
0.0
220
0.0
230
1.0
 70
     8
 71
     3
 72
    11
 73
     7
 74
     5
 42
0.0000000001
 43
0.0000000001
 44
0.00000001
 40
0.0
 40
0.0
 40
0.0
 40
0.0
 40
0.2291050088016177
 40
0.4904677481303129
 40
0.7901929968551864
 40
1.122403866407588
 40
1.122403866407588
 40
1.122403866407588
 40
1.122403866407588
 10
-136.2049746283363
 20
55.02080307206294
 30
0.0
 10
-136.2817293650948
 20
55.03075994131494
 30
0.0
 10
-136.4460458202137
 20
55.05207559593983
 30
0.0
 10
-136.6998599818253
 20
54.9551301134363
 30
0.0
 10
-136.9481534393174
 20
54.78762926756266
 30
0.0
 10
-137.0867225509445
 20
54.62762221953425
 30
0.0
 10
-137.1595687829216
 20
54.54350599477258
 30
0.0
 11
-136.2049746283363
 21
55.02080307206294
 31
0.0
 11
-136.4337604192135
 21
55.03289302453067
 31
0.0
 11
-136.6822717056204
 21
54.9519447568667
 31
0.0
 11
-136.9307829920294
 21
54.78438173812297
 31
0.0
 11
-137.1595687829216
 21
54.54350599477258
 31
0.0
  0
SPLINE
  5
172
330
1F
100
AcDbEntity
  8
0
  6
Continuous
 62
     7
100
AcDbSpline
210
0.0
220
0.0
230
1.0
 70
     8
 71
     3
 72
    11
 73
     7
 74
     5
 42
0.0000000001
 43
0.0000000001
 44
0.00000001
 40
0.0
 40
0.0
 40
0.0
 40
0.0
 40
0.1859645998993797
 40
0.4388352393869609
 40
0.64428365424935
 40
0.8886299004043248
 40
0.8886299004043248
 40
0.8886299004043248
 40
0.8886299004043248
 10
-136.1511800999857
 20
52.80614072261532
 30
0.0
 10
-136.2081817679313
 20
52.78136821566751
 30
0.0
 10
-136.3426930706839
 20
52.72291058974012
 30
0.0
 10
-136.555414656734
 20
52.68422846585676
 30
0.0
 10
-136.7869881840282
 20
52.65090258906014
 30
0.0
 10
-136.9363600119675
 20
52.63714438235336
 30
0.0
 10
-137.0175046955343
 20
52.62967038042763
 30
0.0
 11
-136.1511800999857
 21
52.80614072261532
 31
0.0
 11
-136.3240487606967
 21
52.73758958433352
 31
0.0
 11
-136.5709877938248
 21
52.6831407621919
 31
0.0
 11
-136.7744057361692
 21
52.65432771129779
 31
0.0
 11
-137.0175046955343
 21
52.62967038042763
 31
0.0
  0
SPLINE
  5
173
330
1F
100
AcDbEntity
  8
0
  6
Continuous
 62
     7
100
AcDbSpline
210
0.0
220
0.0
230
1.0
 70
     8
 71
     3
 72
    11
 73
     7
 74
     5
 42
0.0000000001
 43
0.0000000001
 44
0.00000001
 40
0.0
 40
0.0
 40
0.0
 40
0.0
 40
0.3302703692960824
 40
0.6165154993562609
 40
0.9667660586019049
 40
1.245659323856999
 40
1.245659323856999
 40
1.245659323856999
 40
1.245659323856999
 10
-136.0629105409354
 20
54.94977102838167
 30
0.0
 10
-135.9885614953227
 20
54.86857229064455
 30
0.0
 10
-135.8497741766774
 20
54.71699865583805
 30
0.0
 10
-135.6368923093892
 20
54.47509690413138
 30
0.0
 10
-135.439080068112
 20
54.24253660982554
 30
0.0
 10
-135.3142531485012
 20
54.07395710230497
 30
0.0
 10
-135.2589186036066
 20
53.99922746581078
 30
0.0
 11
-136.0629105409354
 21
54.94977102838167
 31
0.0
 11
-135.8407331299481
 21
54.70540303767517
 31
0.0
 11
-135.6515145610683
 21
54.49061801102233
 31
0.0
 11
-135.4271091130765
 21
54.2216986008573
 31
0.0
 11
-135.2589186036066
 21
53.99922746581078
 31
0.0
  0
SPLINE
  5
174
330
1F
100
AcDbEntity
  8
0
  6
Continuous
 62
     7
100
AcDbSpline
210
0.0
220
0.0
230
1.0
 70
     8
 71
     3
 72
    15
 73
    11
 74
     9
 42
0.0000000001
 43
0.0000000001
 44
0.00000001
 40
0.0
 40
0.0
 40
0.0
 40
0.0
 40
0.0123873500915047
 40
0.0259289920920668
 40
0.0361172510055934
 40
0.0472117411122383
 40
0.0567405004079637
 40
0.0635047301659945
 40
0.0700213835854598
 40
0.0757290098201273
 40
0.0757290098201273
 40
0.0757290098201273
 40
0.0757290098201273
 10
-142.2287628842878
 20
58.38090209694088
 30
0.0
 10
-142.2324317531728
 20
58.3827983304264
 30
0.0
 10
-142.2401113675862
 20
58.38676749434664
 30
0.0
 10
-142.2503937246757
 20
58.39305571703215
 30
0.0
 10
-142.2598629948853
 20
58.39978543452815
 30
0.0
 10
-142.2676998236515
 20
58.40644699034084
 30
0.0
 10
-142.2739324685469
 20
58.41317505216609
 30
0.0
 10
-142.2781831359063
 20
58.41948435935743
 30
0.0
 10
-142.2809033522661
 20
58.42531063186424
 30
0.0
 10
-142.2812989537701
 20
58.42939133595359
 30
0.0
 10
-142.2814836636742
 20
58.43129665343444
 30
0.0
 11
-142.2287628842878
 21
58.38090209694088
 31
0.0
 11
-142.2397015240113
 21
58.38671523751115
 31
0.0
 11
-142.2512496612553
 21
58.39378747861736
 31
0.0
 11
-142.2595308969562
 21
58.39972227052228
 31
0.0
 11
-142.2679382614678
 21
58.40696132658614
 31
0.0
 11
-142.2743318968035
 21
58.41402664193014
 31
0.0
 11
-142.2780807929479
 21
58.41965696891158
 31
0.0
 11
-142.2806340079535
 21
58.42565262274787
 31
0.0
 11
-142.2814836636742
 21
58.43129665343444
 31
0.0
  0
SPLINE
  5
175
330
1F
100
AcDbEntity
  8
0
  6
Continuous
 62
     7
100
AcDbSpline
210
0.0
220
0.0
230
1.0
 70
     8
 71
     3
 72
    11
 73
     7
 74
     5
 42
0.0000000001
 43
0.0000000001
 44
0.00000001
 40
0.0
 40
0.0
 40
0.0
 40
0.0
 40
0.0107540569513189
 40
0.0239476419122282
 40
0.04089396482079
 40
0.0633854944523566
 40
0.0633854944523566
 40
0.0633854944523566
 40
0.0633854944523566
 10
-142.2814836636742
 20
58.43129665343444
 30
0.0
 10
-142.2806858506077
 20
58.43492663332543
 30
0.0
 10
-142.2789092427919
 20
58.44301004398349
 30
0.0
 10
-142.2663037740585
 20
58.45063548571743
 30
0.0
 10
-142.2495164873478
 20
58.4552459538652
 30
0.0
 10
-142.2363001834149
 20
58.45586043675276
 30
0.0
 10
-142.2287628842878
 20
58.45621087824956
 30
0.0
 11
-142.2814836636742
 21
58.43129665343444
 31
0.0
 11
-142.277959882109
 21
58.44145700305405
 31
0.0
 11
-142.2673986824283
 21
58.4493647047066
 31
0.0
 11
-142.2511675241267
 21
58.45423577854209
 31
0.0
 11
-142.2287628842878
 21
58.45621087824956
 31
0.0
  0
SPLINE
  5
176
330
1F
100
AcDbEntity
  8
0
  6
Continuous
 62
     7
100
AcDbSpline
210
0.0
220
0.0
230
1.0
 70
     8
 71
     3
 72
    11
 73
     7
 74
     5
 42
0.0000000001
 43
0.0000000001
 44
0.00000001
 40
0.0
 40
0.0
 40
0.0
 40
0.0
 40
0.0135150493145203
 40
0.0273442813755761
 40
0.0406535227458675
 40
0.0561512567192748
 40
0.0561512567192748
 40
0.0561512567192748
 40
0.0561512567192748
 10
-144.1194117891473
 20
55.726208155359
 30
0.0
 10
-144.1162383299329
 20
55.7230053467224
 30
0.0
 10
-144.1098176384743
 20
55.71652527413714
 30
0.0
 10
-144.0991605928138
 20
55.70811141530406
 30
0.0
 10
-144.0873734215116
 20
55.70013832934542
 30
0.0
 10
-144.0788805985042
 20
55.69564203098317
 30
0.0
 10
-144.0743115831847
 20
55.69322308782612
 30
0.0
 11
-144.1194117891473
 21
55.726208155359
 31
0.0
 11
-144.1097088240818
 21
55.71680023173516
 31
0.0
 11
-144.0989233947015
 21
55.70814447223754
 31
0.0
 11
-144.0878655591731
 21
55.70073770646025
 31
0.0
 11
-144.0743115831847
 21
55.69322308782612
 31
0.0
  0
SPLINE
  5
177
330
1F
100
AcDbEntity
  8
0
  6
Continuous
 62
     7
100
AcDbSpline
210
0.0
220
0.0
230
1.0
 70
     8
 71
     3
 72
    11
 73
     7
 74
     5
 42
0.0000000001
 43
0.0000000001
 44
0.00000001
 40
0.0
 40
0.0
 40
0.0
 40
0.0
 40
0.0776552661668469
 40
0.1467102922453858
 40
0.2249523116641999
 40
0.2951457051801151
 40
0.2951457051801151
 40
0.2951457051801151
 40
0.2951457051801151
 10
-143.8844526768877
 20
55.55000511296968
 30
0.0
 10
-143.9073003857015
 20
55.56221916260633
 30
0.0
 10
-143.9504654433038
 20
55.5852945685658
 30
0.0
 10
-144.0121140774738
 20
55.62818912286991
 30
0.0
 10
-144.0683713477767
 20
55.67412708889923
 30
0.0
 10
-144.1030246449072
 20
55.7094869059862
 30
0.0
 10
-144.1194117891473
 20
55.726208155359
 30
0.0
 11
-143.8844526768877
 21
55.55000511296968
 31
0.0
 11
-143.9521668363707
 21
55.58802001753292
 31
0.0
 11
-144.0090982397817
 21
55.62710213534096
 31
0.0
 11
-144.0694135972913
 21
55.67694058687418
 31
0.0
 11
-144.1194117891473
 21
55.726208155359
 31
0.0
  0
SPLINE
  5
178
330
1F
100
AcDbEntity
  8
0
  6
Continuous
 62
     7
100
AcDbSpline
210
0.0
220
0.0
230
1.0
 70
     8
 71
     3
 72
     9
 73
     5
 74
     3
 42
0.0000000001
 43
0.0000000001
 44
0.00000001
 40
0.0
 40
0.0
 40
0.0
 40
0.0
 40
0.4523721550890881
 40
0.8869215599081453
 40
0.8869215599081453
 40
0.8869215599081453
 40
0.8869215599081453
 10
-143.6288343110372
 20
57.28839534065742
 30
0.0
 10
-143.557834298073
 20
57.4222096767965
 30
0.0
 10
-143.4186315608061
 20
57.68456627503402
 30
0.0
 10
-143.2180116489757
 20
57.90347750788256
 30
0.0
 10
-143.1197174285829
 20
58.0107336061021
 30
0.0
 11
-143.6288343110372
 21
57.28839534065742
 31
0.0
 11
-143.3998566870669
 21
57.67853610297388
 31
0.0
 11
-143.1197174285829
 21
58.0107336061021
 31
0.0
  0
SPLINE
  5
179
330
1F
100
AcDbEntity
  8
0
  6
Continuous
 62
     2
100
AcDbSpline
210
0.0
220
0.0
230
1.0
 70
     8
 71
     3
 72
    13
 73
     9
 74
     7
 42
0.0000000001
 43
0.0000000001
 44
0.00000001
 40
0.0
 40
0.0
 40
0.0
 40
0.0
 40
0.4514650757758903
 40
0.8852171674924841
 40
1.284590258821887
 40
1.639272621218799
 40
1.949662378903328
 40
2.231186047222775
 40
2.231186047222775
 40
2.231186047222775
 40
2.231186047222775
 10
-144.0743115831847
 20
57.51113397673124
 30
0.0
 10
-144.0026346376615
 20
57.6438557526537
 30
0.0
 10
-143.8620929521688
 20
57.90409203858288
 30
0.0
 10
-143.5832587298859
 20
58.23281469704946
 30
0.0
 10
-143.2760783152307
 20
58.48763566131309
 30
0.0
 10
-142.9559062864587
 20
58.64470176058918
 30
0.0
 10
-142.6344507438479
 20
58.70451907049209
 30
0.0
 10
-142.4450596634848
 20
58.63975090218159
 30
0.0
 10
-142.3549821802779
 20
58.60894610618937
 30
0.0
 11
-144.0743115831847
 21
57.51113397673124
 31
0.0
 11
-143.8458582154976
 21
57.90053065550205
 31
0.0
 11
-143.5664132481178
 21
58.23227059472344
 31
0.0
 11
-143.2555995706809
 21
58.483056806458
 31
0.0
 11
-142.9352438761584
 21
58.63527969298462
 31
0.0
 11
-142.6278426287702
 21
58.67824799269049
 31
0.0
 11
-142.3549821802779
 21
58.60894610618937
 31
0.0
  0
SPLINE
  5
17A
330
1F
100
AcDbEntity
  8
0
  6
Continuous
 62
     7
100
AcDbSpline
210
0.0
220
0.0
230
1.0
 70
     8
 71
     3
 72
    23
 73
    19
 74
    17
 42
0.0000000001
 43
0.0000000001
 44
0.00000001
 40
0.0
 40
0.0
 40
0.0
 40
0.0
 40
0.2099376403241241
 40
0.4181765819839963
 40
0.6135082114401207
 40
0.8045754193240079
 40
0.9605181900051452
 40
1.141122594493906
 40
1.298378471189662
 40
1.426614061802974
 40
1.541689502746002
 40
1.670419069878713
 40
1.779809662353588
 40
1.885294743562763
 40
1.977616474766716
 40
2.083504603908247
 40
2.180309320416201
 40
2.276162611309788
 40
2.276162611309788
 40
2.276162611309788
 40
2.276162611309788
 10
-144.1512407976339
 20
57.59196477851609
 30
0.0
 10
-144.1185621745067
 20
57.65388755993897
 30
0.0
 10
-144.0534693455021
 20
57.77723207806532
 30
0.0
 10
-143.9398916536413
 20
57.94771011729038
 30
0.0
 10
-143.8177448829311
 20
58.10402351939338
 30
0.0
 10
-143.6946258887737
 20
58.23673958453676
 30
0.0
 10
-143.5648217188306
 20
58.35563338524894
 30
0.0
 10
-143.434021924089
 20
58.45602224324404
 30
0.0
 10
-143.3018231376763
 20
58.53811793302833
 30
0.0
 10
-143.1820725769869
 20
58.59758854329763
 30
0.0
 10
-143.0663418465772
 20
58.64258593238952
 30
0.0
 10
-142.9526566587414
 20
58.67415906079253
 30
0.0
 10
-142.8394162594242
 20
58.69265550733964
 30
0.0
 10
-142.7369618352701
 20
58.69822301380152
 30
0.0
 10
-142.635680143534
 20
58.69297194494983
 30
0.0
 10
-142.5385061721865
 20
58.67659298419525
 30
0.0
 10
-142.4425265140933
 20
58.64902663418695
 30
0.0
 10
-142.3840673930404
 20
58.62226222424792
 30
0.0
 10
-142.3549821802779
 20
58.60894610618937
 30
0.0
 11
-144.1512407976339
 21
57.59196477851609
 31
0.0
 11
-144.0500989816953
 21
57.77593256345006
 31
0.0
 11
-143.9353224781286
 21
57.94968471754496
 31
0.0
 11
-143.8147360491018
 21
58.10335110489281
 31
0.0
 11
-143.684652537162
 21
58.24329737261713
 31
0.0
 11
-143.5695260987474
 21
58.34848316493562
 31
0.0
 11
-143.4260273712143
 21
58.45814658690089
 31
0.0
 11
-143.2922648555021
 21
58.54083274139906
 31
0.0
 11
-143.1773193466098
 21
58.59768251435757
 31
0.0
 11
-143.0700023149198
 21
58.63922059107609
 31
0.0
 11
-142.9458967847738
 21
58.6734129709488
 31
0.0
 11
-142.8379092811755
 21
58.69087724272353
 31
0.0
 11
-142.732572537489
 21
58.69646945044708
 31
0.0
 11
-142.6403812948905
 21
58.69156263471315
 31
0.0
 11
-142.5359510395277
 21
58.67405213335125
 31
0.0
 11
-142.4430988857532
 21
58.6466727491795
 31
0.0
 11
-142.3549821802779
 21
58.60894610618937
 31
0.0
  0
SPLINE
  5
17B
330
1F
100
AcDbEntity
  8
0
  6
Continuous
 62
     7
100
AcDbSpline
210
0.0
220
0.0
230
1.0
 70
     8
 71
     3
 72
    11
 73
     7
 74
     5
 42
0.0000000001
 43
0.0000000001
 44
0.00000001
 40
0.0
 40
0.0
 40
0.0
 40
0.0
 40
0.0263938226978506
 40
0.0472526738098805
 40
0.0681982539880698
 40
0.0948832990898916
 40
0.0948832990898916
 40
0.0948832990898916
 40
0.0948832990898916
 10
-144.1533927522643
 20
55.81248475834335
 30
0.0
 10
-144.1529136955122
 20
55.80366420902872
 30
0.0
 10
-144.1520560436024
 20
55.78787284207293
 30
0.0
 10
-144.1453411712585
 20
55.76599899600315
 30
0.0
 10
-144.1353719142605
 20
55.74528941251666
 30
0.0
 10
-144.1251427023758
 20
55.73305979519801
 30
0.0
 10
-144.1194117891473
 20
55.726208155359
 30
0.0
 11
-144.1533927522643
 21
55.81248475834335
 31
0.0
 11
-144.1507715819062
 21
55.78622141235394
 31
0.0
 11
-144.1448595257112
 21
55.7662179311254
 31
0.0
 11
-144.1355699348117
 21
55.74744505628105
 31
0.0
 11
-144.1194117891473
 21
55.726208155359
 31
0.0
  0
SPLINE
  5
17C
330
1F
100
AcDbEntity
  8
0
  6
Continuous
 62
     7
100
AcDbSpline
210
0.0
220
0.0
230
1.0
 70
     8
 71
     3
 72
     9
 73
     5
 74
     3
 42
0.0000000001
 43
0.0000000001
 44
0.00000001
 40
0.0
 40
0.0
 40
0.0
 40
0.0
 40
0.0555861347164662
 40
0.1036494221742025
 40
0.1036494221742025
 40
0.1036494221742025
 40
0.1036494221742025
 10
-137.9012693834261
 20
54.18781022555172
 30
0.0
 10
-137.9189667163209
 20
54.1952497515242
 30
0.0
 10
-137.9519662824525
 20
54.20912196214346
 30
0.0
 10
-137.9860756042351
 20
54.19892777538455
 30
0.0
 10
-138.0018924424136
 20
54.19420062767535
 30
0.0
 11
-137.9012693834261
 21
54.18781022555172
 31
0.0
 11
-137.9546805554047
 21
54.20320714344442
 31
0.0
 11
-138.0018924424136
 21
54.19420062767535
 31
0.0
  0
SPLINE
  5
17D
330
1F
100
AcDbEntity
  8
0
  6
Continuous
 62
     7
100
AcDbSpline
210
0.0
220
0.0
230
1.0
 70
     8
 71
     3
 72
    15
 73
    11
 74
     9
 42
0.0000000001
 43
0.0000000001
 44
0.00000001
 40
0.0
 40
0.0
 40
0.0
 40
0.0
 40
0.0429624229842843
 40
0.0915588334049048
 40
0.1481693533183573
 40
0.2119419114282058
 40
0.2800083590406932
 40
0.348536393898122
 40
0.4135982472946984
 40
0.4720207589138121
 40
0.4720207589138121
 40
0.4720207589138121
 40
0.4720207589138121
 10
-138.0018924424136
 20
54.19420062767535
 30
0.0
 10
-138.0137473832927
 20
54.1857056799381
 30
0.0
 10
-138.0390118931032
 20
54.16760177772238
 30
0.0
 10
-138.0577178292486
 20
54.11949652684851
 30
0.0
 10
-138.0626341161353
 20
54.06318320779185
 30
0.0
 10
-138.0528527403175
 20
54.00050339694621
 30
0.0
 10
-138.0298486173975
 20
53.93737145715949
 30
0.0
 10
-137.9952514563441
 20
53.87947951741886
 30
0.0
 10
-137.9530479483598
 20
53.83022933794383
 30
0.0
 10
-137.9178989571257
 20
53.80841806885614
 30
0.0
 10
-137.9012693834261
 20
53.7980987938488
 30
0.0
 11
-138.0018924424136
 21
54.19420062767535
 31
0.0
 11
-138.0344395978499
 21
54.16615686791162
 31
0.0
 11
-138.0545252495494
 21
54.12190556621803
 31
0.0
 11
-138.0602694613287
 21
54.06558722998634
 31
0.0
 11
-138.0511351203211
 21
54.00247223190957
 31
0.0
 11
-138.0279765822885
 21
53.93846658054368
 31
0.0
 11
-137.992961322098
 21
53.87955967844204
 31
0.0
 11
-137.9493656762891
 21
53.83126408408905
 31
0.0
 11
-137.9012693834261
 21
53.7980987938488
 31
0.0
  0
SPLINE
  5
17E
330
1F
100
AcDbEntity
  8
0
  6
Continuous
 62
     7
100
AcDbSpline
210
0.0
220
0.0
230
1.0
 70
     8
 71
     3
 72
    11
 73
     7
 74
     5
 42
0.0000000001
 43
0.0000000001
 44
0.00000001
 40
0.0
 40
0.0
 40
0.0
 40
0.0
 40
0.3616476194869516
 40
0.6703730691366055
 40
1.059994731846363
 40
1.356935059132474
 40
1.356935059132474
 40
1.356935059132474
 40
1.356935059132474
 10
-137.0175046955355
 20
54.47247395108278
 30
0.0
 10
-136.9361012688829
 20
54.38354724346488
 30
0.0
 10
-136.7852066907829
 20
54.21870703243681
 30
0.0
 10
-136.5526576078581
 20
53.95276645047846
 30
0.0
 10
-136.3385531126182
 20
53.6988617686357
 30
0.0
 10
-136.2077520090913
 20
53.51095102872399
 30
0.0
 10
-136.1511800999896
 20
53.42967901334445
 30
0.0
 11
-137.0175046955355
 21
54.47247395108278
 31
0.0
 11
-136.7744071492226
 21
54.20471924308082
 31
0.0
 11
-136.5709877938249
 21
53.97248666760749
 31
0.0
 11
-136.3240554262499
 21
53.67110742828186
 31
0.0
 11
-136.1511800999896
 21
53.42967901334445
 31
0.0
  0
SPLINE
  5
17F
330
1F
100
AcDbEntity
  8
0
  6
Continuous
 62
     7
100
AcDbSpline
210
0.0
220
0.0
230
1.0
 70
     8
 71
     3
 72
    11
 73
     7
 74
     5
 42
0.0000000001
 43
0.0000000001
 44
0.00000001
 40
0.0
 40
0.0
 40
0.0
 40
0.0
 40
0.0584906729043858
 40
0.1196536337331521
 40
0.1783587720307148
 40
0.2395720303287181
 40
0.2395720303287181
 40
0.2395720303287181
 40
0.2395720303287181
 10
-137.2330534752049
 20
52.92872242230823
 30
0.0
 10
-137.227234501153
 20
52.91011408010266
 30
0.0
 10
-137.2153306991391
 20
52.87204722855031
 30
0.0
 10
-137.197184911058
 20
52.81543072287347
 30
0.0
 10
-137.1785310557002
 20
52.75802478606312
 30
0.0
 10
-137.1659770637047
 20
52.72007445798319
 30
0.0
 10
-137.1595687829362
 20
52.70070242415685
 30
0.0
 11
-137.2330534752049
 21
52.92872242230823
 31
0.0
 11
-137.2155321615471
 21
52.87291774163975
 31
0.0
 11
-137.1968950329311
 21
52.81466342665542
 31
0.0
 11
-137.1787413144011
 21
52.75883569370781
 31
0.0
 11
-137.1595687829362
 21
52.70070242415685
 31
0.0
  0
SPLINE
  5
180
330
1F
100
AcDbEntity
  8
0
  6
Continuous
 62
     7
100
AcDbSpline
210
0.0
220
0.0
230
1.0
 70
     8
 71
     3
 72
     9
 73
     5
 74
     3
 42
0.0000000001
 43
0.0000000001
 44
0.00000001
 40
0.0
 40
0.0
 40
0.0
 40
0.0
 40
0.0810948791905934
 40
0.159602907768374
 40
0.159602907768374
 40
0.159602907768374
 40
0.159602907768374
 10
-136.8594096961228
 20
52.61136304574982
 30
0.0
 10
-136.8865383271987
 20
52.61145276697358
 30
0.0
 10
-136.9399302114544
 20
52.61162934739821
 30
0.0
 10
-136.9919274586946
 20
52.62372203568387
 30
0.0
 10
-137.0175046955343
 20
52.62967038042763
 30
0.0
 11
-136.8594096961228
 21
52.61136304574982
 31
0.0
 11
-136.9404355363359
 21
52.61470858736623
 31
0.0
 11
-137.0175046955343
 21
52.62967038042763
 31
0.0
  0
SPLINE
  5
181
330
1F
100
AcDbEntity
  8
0
  6
Continuous
 62
     7
100
AcDbSpline
210
0.0
220
0.0
230
1.0
 70
     8
 71
     3
 72
     9
 73
     5
 74
     3
 42
0.0000000001
 43
0.0000000001
 44
0.00000001
 40
0.0
 40
0.0
 40
0.0
 40
0.0
 40
0.0198232812618992
 40
0.039999292008707
 40
0.039999292008707
 40
0.039999292008707
 40
0.039999292008707
 10
-135.2178186311427
 20
53.94085827725937
 30
0.0
 10
-135.2140888255555
 20
53.93540037971172
 30
0.0
 10
-135.2065628473459
 20
53.92438746843439
 30
0.0
 10
-135.1999310732376
 20
53.9128139033243
 30
0.0
 10
-135.1965859453876
 20
53.90697609064529
 30
0.0
 11
-135.2178186311427
 21
53.94085827725937
 31
0.0
 11
-135.2068488400689
 21
53.92434688229148
 31
0.0
 11
-135.1965859453876
 21
53.90697609064529
 31
0.0
  0
SPLINE
  5
182
330
1F
100
AcDbEntity
  8
0
  6
Continuous
 62
     7
100
AcDbSpline
210
0.0
220
0.0
230
1.0
 70
     8
 71
     3
 72
    11
 73
     7
 74
     5
 42
0.0000000001
 43
0.0000000001
 44
0.00000001
 40
0.0
 40
0.0
 40
0.0
 40
0.0
 40
0.0870739860133993
 40
0.1708100948849235
 40
0.2555004043023195
 40
0.3451872253155598
 40
0.3451872253155598
 40
0.3451872253155598
 40
0.3451872253155598
 10
-135.8676842842626
 20
52.64112697101957
 30
0.0
 10
-135.8968883567373
 20
52.64229515981762
 30
0.0
 10
-135.9541769984868
 20
52.64458675629292
 30
0.0
 10
-136.0342709259666
 20
52.6778517536482
 30
0.0
 10
-136.1032119298118
 20
52.73167578470704
 30
0.0
 10
-136.1348881651374
 20
52.7808494114711
 30
0.0
 10
-136.1511800999857
 20
52.80614072261532
 30
0.0
 11
-135.8676842842626
 21
52.64112697101957
 31
0.0
 11
-135.9543237393671
 21
52.64981511578436
 31
0.0
 11
-136.0320408525108
 21
52.68098860217187
 31
0.0
 11
-136.0983629824502
 21
52.73365570375829
 31
0.0
 11
-136.1511800999857
 21
52.80614072261532
 31
0.0
  0
SPLINE
  5
183
330
1F
100
AcDbEntity
  8
0
  6
Continuous
 62
     7
100
AcDbSpline
210
0.0
220
0.0
230
1.0
 70
     8
 71
     3
 72
    15
 73
    11
 74
     9
 42
0.0000000001
 43
0.0000000001
 44
0.00000001
 40
0.0
 40
0.0
 40
0.0
 40
0.0
 40
0.1984482306237028
 40
0.3947864785244181
 40
0.5810393798492575
 40
0.7508329883764823
 40
0.9009082924251123
 40
1.032976257852251
 40
1.155188369385286
 40
1.28036486940143
 40
1.28036486940143
 40
1.28036486940143
 40
1.28036486940143
 10
-136.1511800999896
 20
53.42967901334445
 30
0.0
 10
-136.1259472725343
 20
53.49097548758434
 30
0.0
 10
-136.0757499033617
 20
53.61291670688913
 30
0.0
 10
-135.9671335166298
 20
53.77478465966511
 30
0.0
 10
-135.841476992887
 20
53.91048658936097
 30
0.0
 10
-135.7039695804944
 20
54.0103856958042
 30
0.0
 10
-135.5626897054018
 20
54.0683418005766
 30
0.0
 10
-135.4258625759696
 20
54.0779498377243
 30
0.0
 10
-135.3006417620445
 20
54.03593994116876
 30
0.0
 10
-135.2456460076867
 20
53.97280434395866
 30
0.0
 10
-135.2178186311427
 20
53.94085827725937
 30
0.0
 11
-136.1511800999896
 21
53.42967901334445
 31
0.0
 11
-136.0695179028461
 21
53.61054632878696
 31
0.0
 11
-135.9611629830055
 21
53.77427756873539
 31
0.0
 11
-135.8334255508287
 21
53.90982568444635
 31
0.0
 11
-135.6949240918291
 21
54.00804592345897
 31
0.0
 11
-135.5550030114201
 21
54.06231090427024
 31
0.0
 11
-135.4231025362058
 21
54.0689601245481
 31
0.0
 11
-135.3081219876984
 21
54.02754426200354
 31
0.0
 11
-135.2178186311427
 21
53.94085827725937
 31
0.0
  0
SPLINE
  5
184
330
1F
100
AcDbEntity
  8
0
  6
Continuous
 62
     7
100
AcDbSpline
210
0.0
220
0.0
230
1.0
 70
     8
 71
     3
 72
    13
 73
     9
 74
     7
 42
0.0000000001
 43
0.0000000001
 44
0.00000001
 40
0.0
 40
0.0
 40
0.0
 40
0.0
 40
0.1837617019178039
 40
0.3662421121839897
 40
0.5410178426819379
 40
0.7026935896918552
 40
0.8478917101933025
 40
0.9764652070526199
 40
0.9764652070526199
 40
0.9764652070526199
 40
0.9764652070526199
 10
-135.1965859457446
 20
53.2834377989224
 30
0.0
 10
-135.2197497390389
 20
53.22660896866141
 30
0.0
 10
-135.2659158144166
 20
53.11334755123594
 30
0.0
 10
-135.3642410272469
 20
52.96105710756105
 30
0.0
 10
-135.4781001789381
 20
52.82975358928131
 30
0.0
 10
-135.6037394240631
 20
52.72912490345309
 30
0.0
 10
-135.7338665255448
 20
52.65923322602934
 30
0.0
 10
-135.8249214506351
 20
52.64691301001783
 30
0.0
 10
-135.8676842842626
 20
52.64112697101957
 30
0.0
 11
-135.1965859457446
 21
53.2834377989224
 31
0.0
 11
-135.2712118623061
 21
53.11551122071309
 31
0.0
 11
-135.3691523733347
 21
52.96154123522772
 31
0.0
 11
-135.4847369322334
 21
52.83044292968835
 31
0.0
 11
-135.6112730188992
 21
52.72980662439793
 31
0.0
 11
-135.7414342542213
 21
52.66545954197319
 31
0.0
 11
-135.8676842842626
 21
52.64112697101957
 31
0.0
  0
SPLINE
  5
185
330
1F
100
AcDbEntity
  8
0
  6
Continuous
 62
     7
100
AcDbSpline
210
0.0
220
0.0
230
1.0
 70
     8
 71
     3
 72
    11
 73
     7
 74
     5
 42
0.0000000001
 43
0.0000000001
 44
0.00000001
 40
0.0
 40
0.0
 40
0.0
 40
0.0
 40
0.3366453009272706
 40
0.7868311449991494
 40
1.147682662380355
 40
1.573247156221132
 40
1.573247156221132
 40
1.573247156221132
 40
1.573247156221132
 10
-156.9404485651872
 20
31.24015888632633
 30
0.0
 10
-156.8722629465491
 20
31.32942707124987
 30
0.0
 10
-156.7128947087103
 20
31.53807097021985
 30
0.0
 10
-156.5259166364647
 20
31.87297381127514
 30
0.0
 10
-156.3342024040262
 20
32.2376877039456
 30
0.0
 10
-156.2200580714241
 20
32.47372592968823
 30
0.0
 10
-156.158289523435
 20
32.60145665570582
 30
0.0
 11
-156.9404485651872
 21
31.24015888632633
 31
0.0
 11
-156.7415992498302
 21
31.51180020943174
 31
0.0
 11
-156.5133327812254
 21
31.89982303545284
 31
0.0
 11
-156.345872323645
 21
32.21946472976583
 31
0.0
 11
-156.158289523435
 21
32.60145665570582
 31
0.0
  0
SPLINE
  5
186
330
1F
100
AcDbEntity
  8
0
  6
Continuous
 62
     7
100
AcDbSpline
210
0.0
220
0.0
230
1.0
 70
     8
 71
     3
 72
    15
 73
    11
 74
     9
 42
0.0000000001
 43
0.0000000001
 44
0.00000001
 40
0.0
 40
0.0
 40
0.0
 40
0.0
 40
0.0130102308691134
 40
0.0317156942397119
 40
0.0553259839172694
 40
0.0790455514693558
 40
0.111061722775229
 40
0.1457252015935945
 40
0.1919435070147104
 40
0.2244847505439069
 40
0.2244847505439069
 40
0.2244847505439069
 40
0.2244847505439069
 10
-155.5740963919266
 20
40.24015888632982
 30
0.0
 10
-155.569727900859
 20
40.2407371388979
 30
0.0
 10
-155.5590786104366
 20
40.24214677427078
 30
0.0
 10
-155.5445116550435
 20
40.25501630897522
 30
0.0
 10
-155.5332047016019
 20
40.27392519588903
 30
0.0
 10
-155.5237997490794
 20
40.29877758583043
 30
0.0
 10
-155.5166332929919
 20
40.32809293391962
 30
0.0
 10
-155.5109554271393
 20
40.3653275339417
 30
0.0
 10
-155.5079032841581
 20
40.40305717853774
 30
0.0
 10
-155.5075600867734
 20
40.42931138307568
 30
0.0
 10
-155.5074182872098
 20
40.44015888632984
 30
0.0
 11
-155.5740963919266
 21
40.24015888632982
 31
0.0
 11
-155.5613777449455
 21
40.24289788728604
 31
0.0
 11
-155.5465643356724
 21
40.25431967635853
 31
0.0
 11
-155.5338440485012
 21
40.27421037953714
 31
0.0
 11
-155.5251794097372
 21
40.29629073098244
 31
0.0
 11
-155.5172887117915
 21
40.32731930025362
 31
0.0
 11
-155.5118839085127
 21
40.36155882223201
 31
0.0
 11
-155.508146898407
 21
40.40762580076837
 31
0.0
 11
-155.5074182872098
 21
40.44015888632984
 31
0.0
  0
SPLINE
  5
187
330
1F
100
AcDbEntity
  8
0
  6
Continuous
 62
     7
100
AcDbSpline
210
0.0
220
0.0
230
1.0
 70
     8
 71
     3
 72
    11
 73
     7
 74
     5
 42
0.0000000001
 43
0.0000000001
 44
0.00000001
 40
0.0
 40
0.0
 40
0.0
 40
0.0
 40
0.0691793843938718
 40
0.1355947113387969
 40
0.2048819629248695
 40
0.2712273444611654
 40
0.2712273444611654
 40
0.2712273444611654
 40
0.2712273444611654
 10
-158.5226076069312
 20
32.82468883251232
 30
0.0
 10
-158.5018627768152
 20
32.83475911927525
 30
0.0
 10
-158.4612019748148
 20
32.85449733520012
 30
0.0
 10
-158.3995173019327
 20
32.88380851940022
 30
0.0
 10
-158.3385034602653
 20
32.91232858571303
 30
0.0
 10
-158.2973356872356
 20
32.93101723833513
 30
0.0
 10
-158.2771982649518
 20
32.94015888632993
 30
0.0
 11
-158.5226076069312
 21
32.82468883251232
 31
0.0
 11
-158.46033061877
 21
32.85481131532305
 31
0.0
 11
-158.4003526181318
 21
32.88333560484352
 31
0.0
 11
-158.33756032424
 21
32.91262469940383
 31
0.0
 11
-158.2771982649518
 21
32.94015888632993
 31
0.0
  0
SPLINE
  5
188
330
1F
100
AcDbEntity
  8
0
  6
Continuous
 62
     7
100
AcDbSpline
210
0.0
220
0.0
230
1.0
 70
     8
 71
     3
 72
    19
 73
    15
 74
    13
 42
0.0000000001
 43
0.0000000001
 44
0.00000001
 40
0.0
 40
0.0
 40
0.0
 40
0.0
 40
0.0068980061082076
 40
0.0149135372545872
 40
0.0235753696787167
 40
0.0319191338116932
 40
0.0505156631544687
 40
0.0793129610825901
 40
0.0931840685079587
 40
0.1104969772008354
 40
0.1280229329392985
 40
0.1460826654180193
 40
0.1849659585444602
 40
0.2246977293631015
 40
0.2246977293631015
 40
0.2246977293631015
 40
0.2246977293631015
 10
-159.1068007384577
 20
42.24015888632994
 30
0.0
 10
-159.1091052024915
 20
42.24000879028969
 30
0.0
 10
-159.1140874697846
 20
42.23968428160519
 30
0.0
 10
-159.1215299359663
 20
42.236797538952
 30
0.0
 10
-159.128480301035
 20
42.23209739997306
 30
0.0
 10
-159.1369188228424
 20
42.22367628122222
 30
0.0
 10
-159.1470757584321
 20
42.20791276479866
 30
0.0
 10
-159.1545045941997
 20
42.18877548865474
 30
0.0
 10
-159.1600066239157
 20
42.16955308754613
 30
0.0
 10
-159.1636045095941
 20
42.1537094728635
 30
0.0
 10
-159.1666974503663
 20
42.13634498687776
 30
0.0
 10
-159.1700651184316
 20
42.11174783648129
 30
0.0
 10
-159.1728721266208
 20
42.07961204507951
 30
0.0
 10
-159.1732751543888
 20
42.0534042246158
 30
0.0
 10
-159.1734788431745
 20
42.04015888632992
 30
0.0
 11
-159.1068007384577
 21
42.24015888632994
 31
0.0
 11
-159.1136554606029
 21
42.23938734723082
 31
0.0
 11
-159.1211798661514
 21
42.23662472878092
 31
0.0
 11
-159.1283888379092
 21
42.23182284715607
 31
0.0
 11
-159.1343470815301
 21
42.22598180847612
 31
0.0
 11
-159.1447719982352
 21
42.21058206772218
 31
0.0
 11
-159.1557406048016
 21
42.18395550132783
 31
0.0
 11
-159.1595806784838
 21
42.1706265308004
 31
0.0
 11
-159.1634563290007
 21
42.15375299707213
 31
0.0
 11
-159.1665519005085
 21
42.13650258949473
 31
0.0
 11
-159.1690307126547
 21
42.11861378216872
 31
0.0
 11
-159.1723876775331
 21
42.07987567081618
 31
0.0
 11
-159.1734788431745
 21
42.04015888632992
 31
0.0
  0
SPLINE
  5
189
330
1F
100
AcDbEntity
  8
0
  6
Continuous
 62
     7
100
AcDbSpline
210
0.0
220
0.0
230
1.0
 70
     8
 71
     3
 72
    19
 73
    15
 74
    13
 42
0.0000000001
 43
0.0000000001
 44
0.00000001
 40
0.0
 40
0.0
 40
0.0
 40
0.0
 40
0.0181700936029424
 40
0.0401906909721163
 40
0.0617633307098351
 40
0.0787279686667634
 40
0.0958481446657272
 40
0.114240420639006
 40
0.1315511750988548
 40
0.1454220242071719
 40
0.1691602855148539
 40
0.1927881321629129
 40
0.2115003104202078
 40
0.2245138202234605
 40
0.2245138202234605
 40
0.2245138202234605
 40
0.2245138202234605
 10
-155.5074182872098
 20
42.04015888632992
 30
0.0
 10
-155.5074621050835
 20
42.0462157231697
 30
0.0
 10
-155.5075590264677
 20
42.05961292755487
 30
0.0
 10
-155.5084171264211
 20
42.08018749554203
 30
0.0
 10
-155.5098659923938
 20
42.10032471951062
 30
0.0
 10
-155.5117953796522
 20
42.11877938871802
 30
0.0
 10
-155.5141669815735
 20
42.13611384065973
 30
0.0
 10
-155.5172335806503
 20
42.15345743276628
 30
0.0
 10
-155.5208994980952
 20
42.16958171986495
 30
0.0
 10
-155.5259312682816
 20
42.18718134530575
 30
0.0
 10
-155.5331939930588
 20
42.20636863147968
 30
0.0
 10
-155.5445015011616
 20
42.22529072674933
 30
0.0
 10
-155.5590741836821
 20
42.23816983348663
 30
0.0
 10
-155.5697268085726
 20
42.23958032077866
 30
0.0
 10
-155.5740963919266
 20
42.24015888632994
 30
0.0
 11
-155.5074182872098
 21
42.04015888632992
 31
0.0
 11
-155.5076440599026
 21
42.05832757720821
 31
0.0
 11
-155.5085349398881
 21
42.08033014617973
 31
0.0
 11
-155.5101059381789
 21
42.10184550696276
 31
0.0
 11
-155.5118788797026
 21
42.11871724722164
 31
0.0
 11
-155.5142156384759
 21
42.13567719959984
 31
0.0
 11
-155.5174469636078
 21
42.15378339614603
 31
0.0
 11
-155.5213237027277
 21
42.17065446943036
 31
0.0
 11
-155.5251652385844
 21
42.18398274978634
 31
0.0
 11
-155.5338319384583
 21
42.20608237338511
 31
0.0
 11
-155.54655763399
 21
42.22599045743303
 31
0.0
 11
-155.5613746848493
 21
42.2374185202157
 31
0.0
 11
-155.5740963919266
 21
42.24015888632994
 31
0.0
  0
SPLINE
  5
18A
330
1F
100
AcDbEntity
  8
0
  6
Continuous
 62
     7
100
AcDbSpline
210
0.0
220
0.0
230
1.0
 70
     8
 71
     3
 72
    23
 73
    19
 74
    17
 42
0.0000000001
 43
0.0000000001
 44
0.00000001
 40
0.0
 40
0.0
 40
0.0
 40
0.0
 40
0.0107589809628056
 40
0.0220515236787772
 40
0.0343472718989958
 40
0.0480441370670048
 40
0.0645658487105589
 40
0.0803795998093774
 40
0.0993788551635162
 40
0.1201057675168801
 40
0.1408526729999466
 40
0.1671964576210033
 40
0.1909047030111624
 40
0.2206713654823556
 40
0.2492917913781129
 40
0.2786502312510793
 40
0.3115221416555223
 40
0.3391214775065226
 40
0.3391214775065226
 40
0.3391214775065226
 40
0.3391214775065226
 10
-158.3987490896179
 20
43.24015888632994
 30
0.0
 10
-158.4023443946404
 20
43.23989123766826
 30
0.0
 10
-158.4097133038437
 20
43.23934266705355
 30
0.0
 10
-158.4204618972671
 20
43.23493614420177
 30
0.0
 10
-158.4308451078321
 20
43.2280141344139
 30
0.0
 10
-158.4410808631312
 20
43.21811316912008
 30
0.0
 10
-158.4504686595404
 20
43.20592132230782
 30
0.0
 10
-158.4593630695351
 20
43.19127547378382
 30
0.0
 10
-158.4675374645673
 20
43.17463954896961
 30
0.0
 10
-158.4750305451319
 20
43.15590898882242
 30
0.0
 10
-158.4821201676889
 20
43.13443198585448
 30
0.0
 10
-158.4882365692596
 20
43.11162458826711
 30
0.0
 10
-158.4938676858653
 20
43.08561364188966
 30
0.0
 10
-158.4984529961735
 20
43.05862501671631
 30
0.0
 10
-158.5021365299914
 20
43.02960170230773
 30
0.0
 10
-158.504792901377
 20
42.9994293985946
 30
0.0
 10
-158.5063687542201
 20
42.96951680956901
 30
0.0
 10
-158.506554272722
 20
42.949358997922
 30
0.0
 10
-158.5066389441611
 20
42.94015888632984
 30
0.0
 11
-158.3987490896179
 21
43.24015888632994
 31
0.0
 11
-158.4094235666025
 21
43.23881307339251
 31
0.0
 11
-158.4199616723229
 21
43.23475476724113
 31
0.0
 11
-158.4302355203681
 21
43.2279995122024
 31
0.0
 11
-158.4401721594829
 21
43.21857256579682
 31
0.0
 11
-158.4503540809273
 21
43.20556120801476
 31
0.0
 11
-158.4586237789582
 21
43.19208208273554
 31
0.0
 11
-158.4670717187003
 21
43.1750643267693
 31
0.0
 11
-158.4748274435578
 21
43.15584315022784
 31
0.0
 11
-158.4813691861985
 21
43.13615458272418
 31
0.0
 11
-158.4882445954876
 21
43.11072381916372
 31
0.0
 11
-158.4932858068884
 21
43.08755774295101
 31
0.0
 11
-158.4983064761616
 21
43.05821754740424
 31
0.0
 11
-158.5019255443034
 21
43.02982686012409
 31
0.0
 11
-158.5045281744568
 21
43.00058400957803
 31
0.0
 11
-158.5062025987536
 21
42.96775477265555
 31
0.0
 11
-158.5066389441611
 21
42.94015888632984
 31
0.0
  0
SPLINE
  5
18B
330
1F
100
AcDbEntity
  8
0
  6
Continuous
 62
     7
100
AcDbSpline
210
0.0
220
0.0
230
1.0
 70
     8
 71
     3
 72
    15
 73
    11
 74
     9
 42
0.0000000001
 43
0.0000000001
 44
0.00000001
 40
0.0
 40
0.0
 40
0.0
 40
0.0
 40
0.0398036757776616
 40
0.0787536726236506
 40
0.1134196073480972
 40
0.1454380170156129
 40
0.1691537128941184
 40
0.19275710166597
 40
0.2099892534085956
 40
0.2244884863128795
 40
0.2244884863128795
 40
0.2244884863128795
 40
0.2244884863128795
 10
-159.1734788431745
 20
40.44015888632984
 30
0.0
 10
-159.1732739064363
 20
40.42688924337981
 30
0.0
 10
-159.1728684282872
 20
40.40063455467828
 30
0.0
 10
-159.169576258416
 20
40.36293760391763
 30
0.0
 10
-159.1642660782886
 20
40.32809775121244
 30
0.0
 10
-159.1570953079614
 20
40.29878266787267
 30
0.0
 10
-159.1477046155055
 20
40.27393135654583
 30
0.0
 10
-159.1366138016597
 20
40.25545089415264
 30
0.0
 10
-159.1223315758577
 20
40.24246089291505
 30
0.0
 10
-159.1116716495679
 20
40.24088086088683
 30
0.0
 10
-159.1068007384577
 20
40.24015888632982
 30
0.0
 11
-159.1734788431745
 21
40.44015888632984
 31
0.0
 11
-159.1723836701693
 21
40.40037027990159
 31
0.0
 11
-159.169014124513
 21
40.36156630566734
 31
0.0
 11
-159.1636094173265
 21
40.32732428220861
 31
0.0
 11
-159.1557185867508
 21
40.29629343706282
 31
0.0
 11
-159.1470560131374
 21
40.27421643433613
 31
0.0
 11
-159.13434185438
 21
40.25433000357023
 31
0.0
 11
-159.1208977844777
 21
40.24355020588462
 31
0.0
 11
-159.1068007384577
 21
40.24015888632982
 31
0.0
  0
SPLINE
  5
18C
330
1F
100
AcDbEntity
  8
0
  6
Continuous
 62
     7
100
AcDbSpline
210
0.0
220
0.0
230
1.0
 70
     8
 71
     3
 72
    19
 73
    15
 74
    13
 42
0.0000000001
 43
0.0000000001
 44
0.00000001
 40
0.0
 40
0.0
 40
0.0
 40
0.0
 40
0.0116683775000838
 40
0.0220499012241778
 40
0.0333792676524707
 40
0.0480427162419085
 40
0.0805304644190709
 40
0.1200221874235189
 40
0.1675788954188767
 40
0.2205557162013701
 40
0.249176142168839
 40
0.2785345819699947
 40
0.3086441603701761
 40
0.3390059157256806
 40
0.3390059157256806
 40
0.3390059157256806
 40
0.3390059157256806
 10
-156.2821480407662
 20
43.24015888632994
 30
0.0
 10
-156.2782469897071
 20
43.23984595264416
 30
0.0
 10
-156.270875117266
 20
43.23925459734553
 30
0.0
 10
-156.2604848683749
 20
43.2348903340737
 30
0.0
 10
-156.2503020721647
 20
43.22823304484356
 30
0.0
 10
-156.2361551839884
 20
43.21465724822785
 30
0.0
 10
-156.2200967497255
 20
43.19031720677012
 30
0.0
 10
-156.2042927382303
 20
43.15361719466049
 30
0.0
 10
-156.1913340481524
 20
43.10867152954238
 30
0.0
 10
-156.1834200276035
 20
43.06630017033524
 30
0.0
 10
-156.1787601820354
 20
43.02960213255185
 30
0.0
 10
-156.176185552888
 20
43.00034656819594
 30
0.0
 10
-156.1745606573562
 20
42.97043816081418
 30
0.0
 10
-156.1743592898477
 20
42.95027999894675
 30
0.0
 10
-156.174258186223
 20
42.94015888632984
 30
0.0
 11
-156.2821480407662
 21
43.24015888632994
 31
0.0
 11
-156.2705872031826
 21
43.23857835861742
 31
0.0
 11
-156.2609354580641
 21
43.23475476724263
 31
0.0
 11
-156.2514232597135
 21
43.22860069329077
 31
0.0
 11
-156.2407249709015
 21
43.21857256579702
 31
0.0
 11
-156.2221739180193
 21
43.19190212863179
 31
0.0
 11
-156.2060696868264
 21
43.15584315022772
 31
0.0
 11
-156.1925391053889
 21
43.1102518808736
 31
0.0
 11
-156.1825906542226
 21
43.05821754740413
 31
0.0
 11
-156.1789715860731
 21
43.02982686005267
 31
0.0
 11
-156.1763689559273
 21
43.00058400957803
 31
0.0
 11
-156.1747864805527
 21
42.9705160451786
 31
0.0
 11
-156.174258186223
 21
42.94015888632984
 31
0.0
  0
SPLINE
  5
18D
330
1F
100
AcDbEntity
  8
0
  6
Continuous
 62
     7
100
AcDbSpline
210
0.0
220
0.0
230
1.0
 70
     8
 71
     3
 72
    11
 73
     7
 74
     5
 42
0.0000000001
 43
0.0000000001
 44
0.00000001
 40
0.0
 40
0.0
 40
0.0
 40
0.0
 40
0.0663403593898871
 40
0.1356190964068598
 40
0.2020378920781909
 40
0.2712273444690484
 40
0.2712273444690484
 40
0.2712273444690484
 40
0.2712273444690484
 10
-156.4036988654336
 20
32.94015888633052
 30
0.0
 10
-156.3835629655557
 20
32.93101793463877
 30
0.0
 10
-156.3423992972866
 20
32.91233115603018
 30
0.0
 10
-156.2813884624015
 20
32.88381258324824
 30
0.0
 10
-156.219702240981
 20
32.85450075696906
 30
0.0
 10
-156.1790373750613
 20
32.83476058002138
 30
0.0
 10
-156.1582895234761
 20
32.82468883252352
 30
0.0
 11
-156.4036988654336
 21
32.94015888633052
 31
0.0
 11
-156.3433413663364
 21
32.91262680346861
 31
0.0
 11
-156.2805567573133
 21
32.88334137582143
 31
0.0
 11
-156.2205755892475
 21
32.85481566994249
 31
0.0
 11
-156.1582895234761
 21
32.82468883252352
 31
0.0
  0
SPLINE
  5
18E
330
1F
100
AcDbEntity
  8
0
  6
Continuous
 62
     7
100
AcDbSpline
210
0.0
220
0.0
230
1.0
 70
     8
 71
     3
 72
    11
 73
     7
 74
     5
 42
0.0000000001
 43
0.0000000001
 44
0.00000001
 40
0.0
 40
0.0
 40
0.0
 40
0.0
 40
0.4255644938733714
 40
0.786416011221865
 40
1.236601855296269
 40
1.573247156220865
 40
1.573247156220865
 40
1.573247156220865
 40
1.573247156220865
 10
-158.5226076069492
 20
32.60145665570582
 30
0.0
 10
-158.4608390589553
 20
32.47372592967845
 30
0.0
 10
-158.3466947263533
 20
32.23768770393585
 30
0.0
 10
-158.1549804939137
 20
31.87297381126512
 30
0.0
 10
-157.9680024216745
 20
31.5380709702185
 30
0.0
 10
-157.8086341838316
 20
31.32942707125157
 30
0.0
 10
-157.7404485651923
 20
31.24015888633002
 30
0.0
 11
-158.5226076069492
 21
32.60145665570582
 31
0.0
 11
-158.3350248067245
 21
32.21946472973675
 31
0.0
 11
-158.1675643491589
 21
31.89982303545293
 31
0.0
 11
-157.9392978805521
 21
31.51180020943005
 31
0.0
 11
-157.7404485651923
 21
31.24015888633002
 31
0.0
  0
MTEXT
  5
18F
330
1F
100
AcDbEntity
  8
1
 62
     7
100
AcDbMText
 10
-140.6767979172224
 20
4.57682210838676
 30
0.0
 40
0.9
 41
0.0
 71
     5
 72
     1
  1
5:1
  7
CONVERTER_11
 73
     1
 44
1.32052821128451
  0
MTEXT
  5
190
330
1F
100
AcDbEntity
  8
1
 62
     7
100
AcDbMText
 10
-168.092058054971
 20
4.06469422423552
 30
0.0
 40
0.6
 41
0.0
 71
     4
 72
     1
  1
T.Tedeschi
  7
CONVERTER_11
 73
     1
 44
1.32052821128451
  0
MTEXT
  5
191
330
1F
100
AcDbEntity
  8
1
 62
     7
100
AcDbMText
 10
-168.092058054971
 20
5.06469422423552
 30
0.0
 40
0.6
 41
0.0
 71
     4
 72
     1
  1
06/02/13
  7
CONVERTER_11
 73
     1
 44
1.32052821128451
  0
MTEXT
  5
192
330
1F
100
AcDbEntity
  8
1
 62
     7
100
AcDbMText
 10
-163.1567979172224
 20
5.06469422423555
 30
0.0
 40
0.9
 41
0.0
 71
     4
 72
     1
  1
CR CDS\Ppin code for CDS
  7
CONVERTER_11
 73
     1
 44
0.90036014405762
  0
DIMENSION
  5
19E
330
1F
100
AcDbEntity
  8
1
100
AcDbDimension
  2
*D3
 10
-161.658954619756
 20
25.74015785051543
 30
0.0
 11
-162.358954619756
 21
24.24015785051543
 31
0.0
 70
    32
  1
<>
 71
     5
 42
-1.0
 53
90.0
  3
ME10_DIM_10
100
AcDbAlignedDimension
 13
-158.5066389441611
 23
22.74015785051543
 33
0.0
 14
-158.478471710791
 24
25.74015785051543
 34
0.0
 50
90.0
100
AcDbRotatedDimension
  0
DIMENSION
  5
1A9
330
1F
100
AcDbEntity
  8
1
100
AcDbDimension
  2
*D4
 10
-159.2404485651921
 20
44.90314133005451
 30
0.0
 11
-157.3404485651921
 21
45.63314133005451
 31
0.0
 70
    32
  1
<>
 71
     5
 42
-1.0
 53
0.00013888888889
  3
ME10_DIM_11
100
AcDbAlignedDimension
 13
-155.4404485651921
 23
42.94015888632984
 33
0.0
 14
-159.2404485651921
 24
42.94015888632984
 34
0.0
100
AcDbRotatedDimension
  0
DIMENSION
  5
1B4
330
1F
100
AcDbEntity
  8
1
100
AcDbDimension
  2
*D5
 10
-141.226466919728
 20
43.24015888632994
 30
0.0
 11
-141.926466919728
 21
37.24015888632998
 31
0.0
 70
    32
  1
<>
 71
     5
 42
-1.0
 53
90.0
  3
ME10_DIM_12
100
AcDbAlignedDimension
 13
-146.5516978729223
 23
31.24015888633002
 33
0.0
 14
-146.1016978729223
 24
43.24015888632994
 34
0.0
 50
90.0
100
AcDbRotatedDimension
  0
ENDSEC
  0
SECTION
  2
OBJECTS
  0
DICTIONARY
  5
C
330
0
100
AcDbDictionary
281
     1
  3
ACAD_GROUP
350
D
  3
ACAD_LAYOUT
350
1A
  3
ACAD_MATERIAL
350
3B
  3
ACAD_MLEADERSTYLE
350
1B7
  3
ACAD_MLINESTYLE
350
17
  3
ACAD_PLOTSETTINGS
350
19
  3
ACAD_PLOTSTYLENAME
350
E
  3
ACAD_SCALELIST
350
4B
  3
ACAD_VISUALSTYLE
350
2A
  3
AcDbVariableDictionary
350
1B5
  0
DICTIONARY
  5
D
102
{ACAD_REACTORS
330
C
102
}
330
C
100
AcDbDictionary
281
     1
  0
DICTIONARY
  5
1A
102
{ACAD_REACTORS
330
C
102
}
330
C
100
AcDbDictionary
281
     1
  3
Layout1
350
1E
  3
Layout2
350
26
  3
Model
350
22
  0
DICTIONARY
  5
3B
102
{ACAD_REACTORS
330
C
102
}
330
C
100
AcDbDictionary
281
     1
  3
ByBlock
350
3D
  3
ByLayer
350
3C
  3
Global
350
3E
  0
DICTIONARY
  5
1B7
102
{ACAD_REACTORS
330
C
102
}
330
C
100
AcDbDictionary
281
     1
  0
DICTIONARY
  5
17
102
{ACAD_REACTORS
330
C
102
}
330
C
100
AcDbDictionary
281
     1
  3
Standard
350
18
  0
DICTIONARY
  5
19
102
{ACAD_REACTORS
330
C
102
}
330
C
100
AcDbDictionary
281
     1
  0
ACDBDICTIONARYWDFLT
  5
E
102
{ACAD_REACTORS
330
C
102
}
330
C
100
AcDbDictionary
281
     1
  3
Normal
350
F
100
AcDbDictionaryWithDefault
340
F
  0
DICTIONARY
  5
4B
102
{ACAD_REACTORS
330
C
102
}
330
C
100
AcDbDictionary
281
     1
  3
A0
350
4C
  3
A1
350
4D
  3
A2
350
4E
  3
A3
350
4F
  3
A4
350
50
  3
A5
350
51
  3
A6
350
52
  3
A7
350
53
  3
A8
350
54
  3
A9
350
55
  3
B0
350
56
  3
B1
350
57
  3
B2
350
58
  3
B3
350
59
  3
B4
350
5A
  3
B5
350
5B
  3
B6
350
5C
  3
B7
350
5D
  3
B8
350
5E
  3
B9
350
5F
  3
C0
350
60
  3
C1
350
61
  3
C2
350
62
  3
C3
350
63
  3
C4
350
64
  3
C5
350
65
  3
C6
350
66
  3
C7
350
67
  3
C8
350
68
  3
C9
350
69
  3
D0
350
6A
  3
D1
350
6B
  3
D2
350
6C
  0
DICTIONARY
  5
2A
102
{ACAD_REACTORS
330
C
102
}
330
C
100
AcDbDictionary
281
     1
  3
2dWireframe
350
2F
  3
3D Hidden
350
31
  3
3dWireframe
350
30
  3
Basic
350
32
  3
Brighten
350
36
  3
ColorChange
350
3A
  3
Conceptual
350
34
  3
Dim
350
35
  3
Facepattern
350
39
  3
Flat
350
2B
  3
FlatWithEdges
350
2C
  3
Gouraud
350
2D
  3
GouraudWithEdges
350
2E
  3
Linepattern
350
38
  3
Realistic
350
33
  3
Thicken
350
37
  0
DICTIONARY
  5
1B5
102
{ACAD_REACTORS
330
C
102
}
330
C
100
AcDbDictionary
281
     1
  3
CANNOSCALE
350
1B8
  3
DIMASSOC
350
1B9
  3
HIDETEXT
350
1BA
  0
LAYOUT
  5
1E
102
{ACAD_REACTORS
330
1A
102
}
330
1A
100
AcDbPlotSettings
  1

  2
none_device
  4

  6

 40
0.0
 41
0.0
 42
0.0
 43
0.0
 44
0.0
 45
0.0
 46
0.0
 47
0.0
 48
0.0
 49
0.0
140
0.0
141
0.0
142
1.0
143
1.0
 70
   688
 72
     0
 73
     0
 74
     5
  7

 75
    16
147
1.0
148
0.0
149
0.0
100
AcDbLayout
  1
Layout1
 70
     1
 71
     1
 10
0.0
 20
0.0
 11
12.0
 21
9.0
 12
0.0
 22
0.0
 32
0.0
 14
1.00000000000000E+20
 24
1.00000000000000E+20
 34
1.00000000000000E+20
 15
-1.00000000000000E+20
 25
-1.00000000000000E+20
 35
-1.00000000000000E+20
146
0.0
 13
0.0
 23
0.0
 33
0.0
 16
1.0
 26
0.0
 36
0.0
 17
0.0
 27
1.0
 37
0.0
 76
     0
330
1B
  0
LAYOUT
  5
26
102
{ACAD_REACTORS
330
1A
102
}
330
1A
100
AcDbPlotSettings
  1

  2
none_device
  4

  6

 40
0.0
 41
0.0
 42
0.0
 43
0.0
 44
0.0
 45
0.0
 46
0.0
 47
0.0
 48
0.0
 49
0.0
140
0.0
141
0.0
142
1.0
143
1.0
 70
   688
 72
     0
 73
     0
 74
     5
  7

 75
    16
147
1.0
148
0.0
149
0.0
100
AcDbLayout
  1
Layout2
 70
     1
 71
     2
 10
0.0
 20
0.0
 11
0.0
 21
0.0
 12
0.0
 22
0.0
 32
0.0
 14
0.0
 24
0.0
 34
0.0
 15
0.0
 25
0.0
 35
0.0
146
0.0
 13
0.0
 23
0.0
 33
0.0
 16
1.0
 26
0.0
 36
0.0
 17
0.0
 27
1.0
 37
0.0
 76
     0
330
23
  0
LAYOUT
  5
22
102
{ACAD_REACTORS
330
1A
102
}
330
1A
100
AcDbPlotSettings
  1

  2
none_device
  4

  6

 40
0.0
 41
0.0
 42
0.0
 43
0.0
 44
0.0
 45
0.0
 46
0.0
 47
0.0
 48
0.0
 49
0.0
140
0.0
141
0.0
142
1.0
143
1.0
 70
  1712
 72
     0
 73
     0
 74
     0
  7

 75
     0
147
1.0
148
0.0
149
0.0
100
AcDbLayout
  1
Model
 70
     1
 71
     0
 10
0.0
 20
0.0
 11
12.0
 21
9.0
 12
0.0
 22
0.0
 32
0.0
 14
-174.612058054971
 24
2.56469422423555
 34
0.0
 15
-132.612058054971
 25
61.96469422423558
 35
0.0
146
0.0
 13
0.0
 23
0.0
 33
0.0
 16
1.0
 26
0.0
 36
0.0
 17
0.0
 27
1.0
 37
0.0
 76
     0
330
1F
331
29
  0
MATERIAL
  5
3D
102
{ACAD_REACTORS
330
3B
102
}
102
{ACAD_XDICTIONARY
360
1DD
102
}
330
3B
100
AcDbMaterial
  1
ByBlock
  0
MATERIAL
  5
3C
102
{ACAD_REACTORS
330
3B
102
}
102
{ACAD_XDICTIONARY
360
1DB
102
}
330
3B
100
AcDbMaterial
  1
ByLayer
  0
MATERIAL
  5
3E
102
{ACAD_REACTORS
330
3B
102
}
102
{ACAD_XDICTIONARY
360
1DF
102
}
330
3B
100
AcDbMaterial
  1
Global
  0
MLINESTYLE
  5
18
102
{ACAD_REACTORS
330
17
102
}
330
17
100
AcDbMlineStyle
  2
Standard
 70
     0
  3

 62
   256
 51
90.0
 52
90.0
 71
     2
 49
0.5
 62
   256
  6
BYLAYER
 49
-0.5
 62
   256
  6
BYLAYER
  0
ACDBPLACEHOLDER
  5
F
102
{ACAD_REACTORS
330
E
102
}
330
E
  0
SCALE
  5
4C
102
{ACAD_REACTORS
330
4B
102
}
330
4B
100
AcDbScale
 70
     0
300
1:1
140
1.0
141
1.0
290
     1
  0
SCALE
  5
4D
102
{ACAD_REACTORS
330
4B
102
}
330
4B
100
AcDbScale
 70
     0
300
1:2
140
1.0
141
2.0
290
     0
  0
SCALE
  5
4E
102
{ACAD_REACTORS
330
4B
102
}
330
4B
100
AcDbScale
 70
     0
300
1:4
140
1.0
141
4.0
290
     0
  0
SCALE
  5
4F
102
{ACAD_REACTORS
330
4B
102
}
330
4B
100
AcDbScale
 70
     0
300
1:5
140
1.0
141
5.0
290
     0
  0
SCALE
  5
50
102
{ACAD_REACTORS
330
4B
102
}
330
4B
100
AcDbScale
 70
     0
300
1:8
140
1.0
141
8.0
290
     0
  0
SCALE
  5
51
102
{ACAD_REACTORS
330
4B
102
}
330
4B
100
AcDbScale
 70
     0
300
1:10
140
1.0
141
10.0
290
     0
  0
SCALE
  5
52
102
{ACAD_REACTORS
330
4B
102
}
330
4B
100
AcDbScale
 70
     0
300
1:16
140
1.0
141
16.0
290
     0
  0
SCALE
  5
53
102
{ACAD_REACTORS
330
4B
102
}
330
4B
100
AcDbScale
 70
     0
300
1:20
140
1.0
141
20.0
290
     0
  0
SCALE
  5
54
102
{ACAD_REACTORS
330
4B
102
}
330
4B
100
AcDbScale
 70
     0
300
1:30
140
1.0
141
30.0
290
     0
  0
SCALE
  5
55
102
{ACAD_REACTORS
330
4B
102
}
330
4B
100
AcDbScale
 70
     0
300
1:40
140
1.0
141
40.0
290
     0
  0
SCALE
  5
56
102
{ACAD_REACTORS
330
4B
102
}
330
4B
100
AcDbScale
 70
     0
300
1:50
140
1.0
141
50.0
290
     0
  0
SCALE
  5
57
102
{ACAD_REACTORS
330
4B
102
}
330
4B
100
AcDbScale
 70
     0
300
1:100
140
1.0
141
100.0
290
     0
  0
SCALE
  5
58
102
{ACAD_REACTORS
330
4B
102
}
330
4B
100
AcDbScale
 70
     0
300
2:1
140
2.0
141
1.0
290
     0
  0
SCALE
  5
59
102
{ACAD_REACTORS
330
4B
102
}
330
4B
100
AcDbScale
 70
     0
300
4:1
140
4.0
141
1.0
290
     0
  0
SCALE
  5
5A
102
{ACAD_REACTORS
330
4B
102
}
330
4B
100
AcDbScale
 70
     0
300
8:1
140
8.0
141
1.0
290
     0
  0
SCALE
  5
5B
102
{ACAD_REACTORS
330
4B
102
}
330
4B
100
AcDbScale
 70
     0
300
10:1
140
10.0
141
1.0
290
     0
  0
SCALE
  5
5C
102
{ACAD_REACTORS
330
4B
102
}
330
4B
100
AcDbScale
 70
     0
300
100:1
140
100.0
141
1.0
290
     0
  0
SCALE
  5
5D
102
{ACAD_REACTORS
330
4B
102
}
330
4B
100
AcDbScale
 70
     0
300
1/128" = 1'-0"
140
0.0078125
141
12.0
290
     0
  0
SCALE
  5
5E
102
{ACAD_REACTORS
330
4B
102
}
330
4B
100
AcDbScale
 70
     0
300
1/64" = 1'-0"
140
0.015625
141
12.0
290
     0
  0
SCALE
  5
5F
102
{ACAD_REACTORS
330
4B
102
}
330
4B
100
AcDbScale
 70
     0
300
1/32" = 1'-0"
140
0.03125
141
12.0
290
     0
  0
SCALE
  5
60
102
{ACAD_REACTORS
330
4B
102
}
330
4B
100
AcDbScale
 70
     0
300
1/16" = 1'-0"
140
0.0625
141
12.0
290
     0
  0
SCALE
  5
61
102
{ACAD_REACTORS
330
4B
102
}
330
4B
100
AcDbScale
 70
     0
300
3/32" = 1'-0"
140
0.09375
141
12.0
290
     0
  0
SCALE
  5
62
102
{ACAD_REACTORS
330
4B
102
}
330
4B
100
AcDbScale
 70
     0
300
1/8" = 1'-0"
140
0.125
141
12.0
290
     0
  0
SCALE
  5
63
102
{ACAD_REACTORS
330
4B
102
}
330
4B
100
AcDbScale
 70
     0
300
3/16" = 1'-0"
140
0.1875
141
12.0
290
     0
  0
SCALE
  5
64
102
{ACAD_REACTORS
330
4B
102
}
330
4B
100
AcDbScale
 70
     0
300
1/4" = 1'-0"
140
0.25
141
12.0
290
     0
  0
SCALE
  5
65
102
{ACAD_REACTORS
330
4B
102
}
330
4B
100
AcDbScale
 70
     0
300
3/8" = 1'-0"
140
0.375
141
12.0
290
     0
  0
SCALE
  5
66
102
{ACAD_REACTORS
330
4B
102
}
330
4B
100
AcDbScale
 70
     0
300
1/2" = 1'-0"
140
0.5
141
12.0
290
     0
  0
SCALE
  5
67
102
{ACAD_REACTORS
330
4B
102
}
330
4B
100
AcDbScale
 70
     0
300
3/4" = 1'-0"
140
0.75
141
12.0
290
     0
  0
SCALE
  5
68
102
{ACAD_REACTORS
330
4B
102
}
330
4B
100
AcDbScale
 70
     0
300
1" = 1'-0"
140
1.0
141
12.0
290
     0
  0
SCALE
  5
69
102
{ACAD_REACTORS
330
4B
102
}
330
4B
100
AcDbScale
 70
     0
300
1-1/2" = 1'-0"
140
1.5
141
12.0
290
     0
  0
SCALE
  5
6A
102
{ACAD_REACTORS
330
4B
102
}
330
4B
100
AcDbScale
 70
     0
300
3" = 1'-0"
140
3.0
141
12.0
290
     0
  0
SCALE
  5
6B
102
{ACAD_REACTORS
330
4B
102
}
330
4B
100
AcDbScale
 70
     0
300
6" = 1'-0"
140
6.0
141
12.0
290
     0
  0
SCALE
  5
6C
102
{ACAD_REACTORS
330
4B
102
}
330
4B
100
AcDbScale
 70
     0
300
1'-0" = 1'-0"
140
12.0
141
12.0
290
     0
  0
VISUALSTYLE
  5
2F
102
{ACAD_REACTORS
330
2A
102
}
102
{ACAD_XDICTIONARY
360
1C3
102
}
330
2A
100
AcDbVisualStyle
  2
2dWireframe
 70
     4
 71
     0
 72
     2
 73
     0
 90
        0
 40
-0.6
 41
-30.0
 62
     5
 63
     7
 74
     1
 91
        4
 64
     7
 65
   257
 75
     1
175
     1
 42
1.0
 92
        0
 66
   257
 43
1.0
 76
     1
 77
     6
 78
     2
 67
     7
 79
     5
170
     0
171
     0
290
     0
174
     0
 93
        1
 44
0.0
173
     0
291
     0
 45
0.0
1001
ACAD
1000
AcDbSavedByObjectVersion
1070
     0
  0
VISUALSTYLE
  5
31
102
{ACAD_REACTORS
330
2A
102
}
102
{ACAD_XDICTIONARY
360
1C7
102
}
330
2A
100
AcDbVisualStyle
  2
3D Hidden
 70
     6
 71
     1
 72
     2
 73
     2
 90
        0
 40
-0.6
 41
-30.0
 62
     5
 63
     7
 74
     2
 91
        2
 64
     7
 65
   257
 75
     2
175
     1
 42
40.0
 92
        0
 66
   257
 43
1.0
 76
     1
 77
     6
 78
     2
 67
     7
 79
     3
170
     0
171
     0
290
     0
174
     0
 93
        1
 44
0.0
173
     0
291
     0
 45
0.0
1001
ACAD
1000
AcDbSavedByObjectVersion
1070
     0
  0
VISUALSTYLE
  5
30
102
{ACAD_REACTORS
330
2A
102
}
102
{ACAD_XDICTIONARY
360
1C5
102
}
330
2A
100
AcDbVisualStyle
  2
3dWireframe
 70
     5
 71
     0
 72
     2
 73
     0
 90
        0
 40
-0.6
 41
-30.0
 62
     5
 63
     7
 74
     1
 91
        4
 64
     7
 65
   257
 75
     1
175
     1
 42
1.0
 92
        0
 66
   257
 43
1.0
 76
     1
 77
     6
 78
     2
 67
     7
 79
     5
170
     0
171
     0
290
     0
174
     0
 93
        1
 44
0.0
173
     0
291
     0
 45
0.0
1001
ACAD
1000
AcDbSavedByObjectVersion
1070
     0
  0
VISUALSTYLE
  5
32
102
{ACAD_REACTORS
330
2A
102
}
102
{ACAD_XDICTIONARY
360
1C9
102
}
330
2A
100
AcDbVisualStyle
  2
Basic
 70
     7
 71
     1
 72
     0
 73
     1
 90
        0
 40
-0.6
 41
-30.0
 62
     5
 63
     7
 74
     0
 91
        4
 64
     7
 65
   257
 75
     1
175
     1
 42
1.0
 92
        8
 66
     7
 43
1.0
 76
     1
 77
     6
 78
     2
 67
     7
 79
     5
170
     0
171
     0
290
     0
174
     0
 93
        1
 44
0.0
173
     0
291
     1
 45
0.0
1001
ACAD
1000
AcDbSavedByObjectVersion
1070
     0
  0
VISUALSTYLE
  5
36
102
{ACAD_REACTORS
330
2A
102
}
102
{ACAD_XDICTIONARY
360
1D1
102
}
330
2A
100
AcDbVisualStyle
  2
Brighten
 70
    12
 71
     2
 72
     2
 73
     0
 90
        0
 40
-0.6
 41
-30.0
 62
     5
 63
     7
 74
     1
 91
        4
 64
     7
 65
   257
 75
     1
175
     1
 42
1.0
 92
        8
 66
     7
 43
1.0
 76
     1
 77
     6
 78
     2
 67
     7
 79
     5
170
     0
171
     0
290
     0
174
     0
 93
        1
 44
50.0
173
     0
291
     1
 45
0.0
1001
ACAD
1000
AcDbSavedByObjectVersion
1070
     0
  0
VISUALSTYLE
  5
3A
102
{ACAD_REACTORS
330
2A
102
}
102
{ACAD_XDICTIONARY
360
1D9
102
}
330
2A
100
AcDbVisualStyle
  2
ColorChange
 70
    16
 71
     2
 72
     2
 73
     3
 90
        0
 40
-0.6
 41
-30.0
 62
     5
 63
     8
 74
     1
 91
        4
 64
     7
 65
   257
 75
     1
175
     1
 42
1.0
 92
        8
 66
     8
 43
1.0
 76
     1
 77
     6
 78
     2
 67
     7
 79
     5
170
     0
171
     0
290
     0
174
     0
 93
        1
 44
0.0
173
     0
291
     1
 45
0.0
1001
ACAD
1000
AcDbSavedByObjectVersion
1070
     0
  0
VISUALSTYLE
  5
34
102
{ACAD_REACTORS
330
2A
102
}
102
{ACAD_XDICTIONARY
360
1CD
102
}
330
2A
100
AcDbVisualStyle
  2
Conceptual
 70
     9
 71
     3
 72
     2
 73
     0
 90
        0
 40
-0.6
 41
-30.0
 62
     5
 63
     7
 74
     2
 91
        2
 64
     7
 65
   257
 75
     1
175
     1
 42
40.0
 92
        8
 66
     7
 43
1.0
 76
     1
 77
     6
 78
     2
 67
     7
 79
     3
170
     0
171
     0
290
     0
174
     0
 93
        1
 44
0.0
173
     0
291
     0
 45
0.0
1001
ACAD
1000
AcDbSavedByObjectVersion
1070
     0
  0
VISUALSTYLE
  5
35
102
{ACAD_REACTORS
330
2A
102
}
102
{ACAD_XDICTIONARY
360
1CF
102
}
330
2A
100
AcDbVisualStyle
  2
Dim
 70
    11
 71
     2
 72
     2
 73
     0
 90
        0
 40
-0.6
 41
-30.0
 62
     5
 63
     7
 74
     1
 91
        4
 64
     7
 65
   257
 75
     1
175
     1
 42
1.0
 92
        8
 66
     7
 43
1.0
 76
     1
 77
     6
 78
     2
 67
     7
 79
     5
170
     0
171
     0
290
     0
174
     0
 93
        1
 44
-50.0
173
     0
291
     1
 45
0.0
1001
ACAD
1000
AcDbSavedByObjectVersion
1070
     0
  0
VISUALSTYLE
  5
39
102
{ACAD_REACTORS
330
2A
102
}
102
{ACAD_XDICTIONARY
360
1D7
102
}
330
2A
100
AcDbVisualStyle
  2
Facepattern
 70
    15
 71
     2
 72
     2
 73
     0
 90
        0
 40
-0.6
 41
-30.0
 62
     5
 63
     7
 74
     1
 91
        4
 64
     7
 65
   257
 75
     1
175
     1
 42
1.0
 92
        8
 66
     7
 43
1.0
 76
     1
 77
     6
 78
     2
 67
     7
 79
     5
170
     0
171
     0
290
     0
174
     0
 93
        1
 44
0.0
173
     0
291
     1
 45
0.0
1001
ACAD
1000
AcDbSavedByObjectVersion
1070
     0
  0
VISUALSTYLE
  5
2B
102
{ACAD_REACTORS
330
2A
102
}
102
{ACAD_XDICTIONARY
360
1BB
102
}
330
2A
100
AcDbVisualStyle
  2
Flat
 70
     0
 71
     2
 72
     1
 73
     1
 90
        2
 40
-0.6
 41
30.0
 62
     5
 63
     7
 74
     0
 91
        4
 64
     7
 65
   257
 75
     1
175
     1
 42
1.0
 92
        8
 66
     7
 43
1.0
 76
     1
 77
     6
 78
     2
 67
     7
 79
     5
170
     0
171
     0
290
     0
174
     0
 93
       13
 44
0.0
173
     0
291
     1
 45
0.0
1001
ACAD
1000
AcDbSavedByObjectVersion
1070
     0
  0
VISUALSTYLE
  5
2C
102
{ACAD_REACTORS
330
2A
102
}
102
{ACAD_XDICTIONARY
360
1BD
102
}
330
2A
100
AcDbVisualStyle
  2
FlatWithEdges
 70
     1
 71
     2
 72
     1
 73
     1
 90
        2
 40
-0.6
 41
30.0
 62
     5
 63
     7
 74
     1
 91
        4
 64
     7
 65
   257
 75
     1
175
     1
 42
1.0
 92
        0
 66
   257
 43
1.0
 76
     1
 77
     6
 78
     2
 67
     7
 79
     5
170
     0
171
     0
290
     0
174
     0
 93
       13
 44
0.0
173
     0
291
     1
 45
0.0
1001
ACAD
1000
AcDbSavedByObjectVersion
1070
     0
  0
VISUALSTYLE
  5
2D
102
{ACAD_REACTORS
330
2A
102
}
102
{ACAD_XDICTIONARY
360
1BF
102
}
330
2A
100
AcDbVisualStyle
  2
Gouraud
 70
     2
 71
     2
 72
     2
 73
     1
 90
        2
 40
-0.6
 41
30.0
 62
     5
 63
     7
 74
     0
 91
        4
 64
     7
 65
   257
 75
     1
175
     1
 42
1.0
 92
        0
 66
     7
 43
1.0
 76
     1
 77
     6
 78
     2
 67
     7
 79
     5
170
     0
171
     0
290
     0
174
     0
 93
       13
 44
0.0
173
     0
291
     1
 45
0.0
1001
ACAD
1000
AcDbSavedByObjectVersion
1070
     0
  0
VISUALSTYLE
  5
2E
102
{ACAD_REACTORS
330
2A
102
}
102
{ACAD_XDICTIONARY
360
1C1
102
}
330
2A
100
AcDbVisualStyle
  2
GouraudWithEdges
 70
     3
 71
     2
 72
     2
 73
     1
 90
        2
 40
-0.6
 41
30.0
 62
     5
 63
     7
 74
     1
 91
        4
 64
     7
 65
   257
 75
     1
175
     1
 42
1.0
 92
        0
 66
   257
 43
1.0
 76
     1
 77
     6
 78
     2
 67
     7
 79
     5
170
     0
171
     0
290
     0
174
     0
 93
       13
 44
0.0
173
     0
291
     1
 45
0.0
1001
ACAD
1000
AcDbSavedByObjectVersion
1070
     0
  0
VISUALSTYLE
  5
38
102
{ACAD_REACTORS
330
2A
102
}
102
{ACAD_XDICTIONARY
360
1D5
102
}
330
2A
100
AcDbVisualStyle
  2
Linepattern
 70
    14
 71
     2
 72
     2
 73
     0
 90
        0
 40
-0.6
 41
-30.0
 62
     5
 63
     7
 74
     1
 91
        4
 64
     7
 65
   257
 75
     7
175
     7
 42
1.0
 92
        8
 66
     7
 43
1.0
 76
     1
 77
     6
 78
     2
 67
     7
 79
     5
170
     0
171
     0
290
     0
174
     0
 93
        1
 44
0.0
173
     0
291
     1
 45
0.0
1001
ACAD
1000
AcDbSavedByObjectVersion
1070
     0
  0
VISUALSTYLE
  5
33
102
{ACAD_REACTORS
330
2A
102
}
102
{ACAD_XDICTIONARY
360
1CB
102
}
330
2A
100
AcDbVisualStyle
  2
Realistic
 70
     8
 71
     2
 72
     2
 73
     0
 90
        0
 40
-0.6
 41
-30.0
 62
     5
 63
     7
 74
     1
 91
        0
 64
     7
 65
   257
 75
     1
175
     1
 42
1.0
 92
        8
 66
     8
 43
1.0
 76
     1
 77
     6
 78
     2
 67
     7
 79
     5
170
     0
171
     0
290
     0
174
     0
 93
       13
 44
0.0
173
     0
291
     0
 45
0.0
1001
ACAD
1000
AcDbSavedByObjectVersion
1070
     0
  0
VISUALSTYLE
  5
37
102
{ACAD_REACTORS
330
2A
102
}
102
{ACAD_XDICTIONARY
360
1D3
102
}
330
2A
100
AcDbVisualStyle
  2
Thicken
 70
    13
 71
     2
 72
     2
 73
     0
 90
        0
 40
-0.6
 41
-30.0
 62
     5
 63
     7
 74
     1
 91
        4
 64
     7
 65
   257
 75
     1
175
     1
 42
1.0
 92
       12
 66
     7
 43
1.0
 76
     1
 77
     6
 78
     2
 67
     7
 79
     5
170
     0
171
     0
290
     0
174
     0
 93
        1
 44
0.0
173
     0
291
     1
 45
0.0
1001
ACAD
1000
AcDbSavedByObjectVersion
1070
     0
  0
DICTIONARYVAR
  5
1B8
102
{ACAD_REACTORS
330
1B5
102
}
330
1B5
100
DictionaryVariables
280
     0
  1
1:1
  0
DICTIONARYVAR
  5
1B9
102
{ACAD_REACTORS
330
1B5
102
}
330
1B5
100
DictionaryVariables
280
     0
  1
2
  0
DICTIONARYVAR
  5
1BA
102
{ACAD_REACTORS
330
1B5
102
}
330
1B5
100
DictionaryVariables
280
     0
  1
1
  0
DICTIONARY
  5
1DD
330
3D
100
AcDbDictionary
280
     1
281
     1
  3
ACAD_XREC_ROUNDTRIP
360
1DE
  0
DICTIONARY
  5
1DB
330
3C
100
AcDbDictionary
280
     1
281
     1
  3
ACAD_XREC_ROUNDTRIP
360
1DC
  0
DICTIONARY
  5
1DF
330
3E
100
AcDbDictionary
280
     1
281
     1
  3
ACAD_XREC_ROUNDTRIP
360
1E0
  0
DICTIONARY
  5
1C3
330
2F
100
AcDbDictionary
280
     1
281
     1
  3
ACAD_XREC_ROUNDTRIP
360
1C4
  0
DICTIONARY
  5
1C7
330
31
100
AcDbDictionary
280
     1
281
     1
  3
ACAD_XREC_ROUNDTRIP
360
1C8
  0
DICTIONARY
  5
1C5
330
30
100
AcDbDictionary
280
     1
281
     1
  3
ACAD_XREC_ROUNDTRIP
360
1C6
  0
DICTIONARY
  5
1C9
330
32
100
AcDbDictionary
280
     1
281
     1
  3
ACAD_XREC_ROUNDTRIP
360
1CA
  0
DICTIONARY
  5
1D1
330
36
100
AcDbDictionary
280
     1
281
     1
  3
ACAD_XREC_ROUNDTRIP
360
1D2
  0
DICTIONARY
  5
1D9
330
3A
100
AcDbDictionary
280
     1
281
     1
  3
ACAD_XREC_ROUNDTRIP
360
1DA
  0
DICTIONARY
  5
1CD
330
34
100
AcDbDictionary
280
     1
281
     1
  3
ACAD_XREC_ROUNDTRIP
360
1CE
  0
DICTIONARY
  5
1CF
330
35
100
AcDbDictionary
280
     1
281
     1
  3
ACAD_XREC_ROUNDTRIP
360
1D0
  0
DICTIONARY
  5
1D7
330
39
100
AcDbDictionary
280
     1
281
     1
  3
ACAD_XREC_ROUNDTRIP
360
1D8
  0
DICTIONARY
  5
1BB
330
2B
100
AcDbDictionary
280
     1
281
     1
  3
ACAD_XREC_ROUNDTRIP
360
1BC
  0
DICTIONARY
  5
1BD
330
2C
100
AcDbDictionary
280
     1
281
     1
  3
ACAD_XREC_ROUNDTRIP
360
1BE
  0
DICTIONARY
  5
1BF
330
2D
100
AcDbDictionary
280
     1
281
     1
  3
ACAD_XREC_ROUNDTRIP
360
1C0
  0
DICTIONARY
  5
1C1
330
2E
100
AcDbDictionary
280
     1
281
     1
  3
ACAD_XREC_ROUNDTRIP
360
1C2
  0
DICTIONARY
  5
1D5
330
38
100
AcDbDictionary
280
     1
281
     1
  3
ACAD_XREC_ROUNDTRIP
360
1D6
  0
DICTIONARY
  5
1CB
330
33
100
AcDbDictionary
280
     1
281
     1
  3
ACAD_XREC_ROUNDTRIP
360
1CC
  0
DICTIONARY
  5
1D3
330
37
100
AcDbDictionary
280
     1
281
     1
  3
ACAD_XREC_ROUNDTRIP
360
1D4
  0
XRECORD
  5
1DE
102
{ACAD_REACTORS
330
1DD
102
}
330
1DD
100
AcDbXrecord
280
     1
102
MATERIAL
148
0.0
149
0.0
149
0.0
 93
        0
 94
      127
282
     0
 72
     1
 77
     1
171
     1
175
     1
179
     1
273
     0
  0
XRECORD
  5
1DC
102
{ACAD_REACTORS
330
1DB
102
}
330
1DB
100
AcDbXrecord
280
     1
102
MATERIAL
148
0.0
149
0.0
149
0.0
 93
        0
 94
      127
282
     0
 72
     1
 77
     1
171
     1
175
     1
179
     1
273
     0
  0
XRECORD
  5
1E0
102
{ACAD_REACTORS
330
1DF
102
}
330
1DF
100
AcDbXrecord
280
     1
102
MATERIAL
148
0.0
149
0.0
149
0.0
 93
        0
 94
      127
282
     0
 72
     1
 77
     1
171
     1
175
     1
179
     1
273
     0
  0
XRECORD
  5
1C4
102
{ACAD_REACTORS
330
1C3
102
}
330
1C3
100
AcDbXrecord
280
     1
102
RTVSPropertyOp0
 70
     1
102
RTVSPropertyOp1
 70
     1
102
RTVSPropertyOp2
 70
     1
102
RTVSPropertyOp3
 70
     1
102
RTVSPropertyOp4
 70
     1
102
RTVSPropertyOp5
 70
     1
102
RTVSPropertyOp6
 70
     1
102
RTVSPropertyOp7
 70
     1
102
RTVSPropertyOp8
 70
     1
102
RTVSPropertyOp9
 70
     1
102
RTVSPropertyOp10
 70
     1
102
RTVSPropertyOp11
 70
     1
102
RTVSPropertyOp12
 70
     1
102
RTVSPropertyOp13
 70
     1
102
RTVSPropertyOp14
 70
     1
102
RTVSPropertyOp15
 70
     1
102
RTVSPropertyOp16
 70
     1
102
RTVSPropertyOp17
 70
     1
102
RTVSPropertyOp18
 70
     1
102
RTVSPropertyOp19
 70
     1
102
RTVSPropertyOp20
 70
     1
102
RTVSPropertyOp21
 70
     1
102
RTVSPropertyOp22
 70
     1
102
RTVSPropertyOp23
 70
     1
102
RTVSPropertyOp24
 70
     1
102
RTVSPropertyOp25
 70
     1
102
RTVSPropertyOp26
 70
     1
102
RTVSPropertyOp27
 70
     1
  0
XRECORD
  5
1C8
102
{ACAD_REACTORS
330
1C7
102
}
330
1C7
100
AcDbXrecord
280
     1
102
RTVSPropertyOp0
 70
     1
102
RTVSPropertyOp1
 70
     1
102
RTVSPropertyOp2
 70
     1
102
RTVSPropertyOp3
 70
     1
102
RTVSPropertyOp4
 70
     1
102
RTVSPropertyOp5
 70
     1
102
RTVSPropertyOp6
 70
     1
102
RTVSPropertyOp7
 70
     1
102
RTVSPropertyOp8
 70
     1
102
RTVSPropertyOp9
 70
     1
102
RTVSPropertyOp10
 70
     1
102
RTVSPropertyOp11
 70
     1
102
RTVSPropertyOp12
 70
     1
102
RTVSPropertyOp13
 70
     1
102
RTVSPropertyOp14
 70
     1
102
RTVSPropertyOp15
 70
     1
102
RTVSPropertyOp16
 70
     1
102
RTVSPropertyOp17
 70
     1
102
RTVSPropertyOp18
 70
     1
102
RTVSPropertyOp19
 70
     1
102
RTVSPropertyOp20
 70
     1
102
RTVSPropertyOp21
 70
     1
102
RTVSPropertyOp22
 70
     1
102
RTVSPropertyOp23
 70
     1
102
RTVSPropertyOp24
 70
     1
102
RTVSPropertyOp25
 70
     1
102
RTVSPropertyOp26
 70
     1
102
RTVSPropertyOp27
 70
     1
  0
XRECORD
  5
1C6
102
{ACAD_REACTORS
330
1C5
102
}
330
1C5
100
AcDbXrecord
280
     1
102
RTVSPropertyOp0
 70
     1
102
RTVSPropertyOp1
 70
     1
102
RTVSPropertyOp2
 70
     1
102
RTVSPropertyOp3
 70
     1
102
RTVSPropertyOp4
 70
     1
102
RTVSPropertyOp5
 70
     1
102
RTVSPropertyOp6
 70
     1
102
RTVSPropertyOp7
 70
     1
102
RTVSPropertyOp8
 70
     1
102
RTVSPropertyOp9
 70
     1
102
RTVSPropertyOp10
 70
     1
102
RTVSPropertyOp11
 70
     1
102
RTVSPropertyOp12
 70
     1
102
RTVSPropertyOp13
 70
     1
102
RTVSPropertyOp14
 70
     1
102
RTVSPropertyOp15
 70
     1
102
RTVSPropertyOp16
 70
     1
102
RTVSPropertyOp17
 70
     1
102
RTVSPropertyOp18
 70
     1
102
RTVSPropertyOp19
 70
     1
102
RTVSPropertyOp20
 70
     1
102
RTVSPropertyOp21
 70
     1
102
RTVSPropertyOp22
 70
     1
102
RTVSPropertyOp23
 70
     1
102
RTVSPropertyOp24
 70
     1
102
RTVSPropertyOp25
 70
     1
102
RTVSPropertyOp26
 70
     1
102
RTVSPropertyOp27
 70
     1
  0
XRECORD
  5
1CA
102
{ACAD_REACTORS
330
1C9
102
}
330
1C9
100
AcDbXrecord
280
     1
102
RTVSPropertyOp0
 70
     1
102
RTVSPropertyOp1
 70
     1
102
RTVSPropertyOp2
 70
     1
102
RTVSPropertyOp3
 70
     1
102
RTVSPropertyOp4
 70
     1
102
RTVSPropertyOp5
 70
     1
102
RTVSPropertyOp6
 70
     1
102
RTVSPropertyOp7
 70
     1
102
RTVSPropertyOp8
 70
     1
102
RTVSPropertyOp9
 70
     1
102
RTVSPropertyOp10
 70
     1
102
RTVSPropertyOp11
 70
     1
102
RTVSPropertyOp12
 70
     1
102
RTVSPropertyOp13
 70
     1
102
RTVSPropertyOp14
 70
     1
102
RTVSPropertyOp15
 70
     1
102
RTVSPropertyOp16
 70
     1
102
RTVSPropertyOp17
 70
     1
102
RTVSPropertyOp18
 70
     1
102
RTVSPropertyOp19
 70
     1
102
RTVSPropertyOp20
 70
     1
102
RTVSPropertyOp21
 70
     1
102
RTVSPropertyOp22
 70
     1
102
RTVSPropertyOp23
 70
     1
102
RTVSPropertyOp24
 70
     1
102
RTVSPropertyOp25
 70
     1
102
RTVSPropertyOp26
 70
     1
102
RTVSPropertyOp27
 70
     1
  0
XRECORD
  5
1D2
102
{ACAD_REACTORS
330
1D1
102
}
330
1D1
100
AcDbXrecord
280
     1
102
RTVSPropertyOp0
 70
     1
102
RTVSPropertyOp1
 70
     1
102
RTVSPropertyOp2
 70
     1
102
RTVSPropertyOp3
 70
     1
102
RTVSPropertyOp4
 70
     1
102
RTVSPropertyOp5
 70
     1
102
RTVSPropertyOp6
 70
     1
102
RTVSPropertyOp7
 70
     1
102
RTVSPropertyOp8
 70
     1
102
RTVSPropertyOp9
 70
     1
102
RTVSPropertyOp10
 70
     1
102
RTVSPropertyOp11
 70
     1
102
RTVSPropertyOp12
 70
     1
102
RTVSPropertyOp13
 70
     1
102
RTVSPropertyOp14
 70
     1
102
RTVSPropertyOp15
 70
     1
102
RTVSPropertyOp16
 70
     1
102
RTVSPropertyOp17
 70
     1
102
RTVSPropertyOp18
 70
     1
102
RTVSPropertyOp19
 70
     1
102
RTVSPropertyOp20
 70
     1
102
RTVSPropertyOp21
 70
     1
102
RTVSPropertyOp22
 70
     1
102
RTVSPropertyOp23
 70
     1
102
RTVSPropertyOp24
 70
     1
102
RTVSPropertyOp25
 70
     1
102
RTVSPropertyOp26
 70
     1
102
RTVSPropertyOp27
 70
     1
  0
XRECORD
  5
1DA
102
{ACAD_REACTORS
330
1D9
102
}
330
1D9
100
AcDbXrecord
280
     1
102
RTVSPropertyOp0
 70
     1
102
RTVSPropertyOp1
 70
     1
102
RTVSPropertyOp2
 70
     1
102
RTVSPropertyOp3
 70
     1
102
RTVSPropertyOp4
 70
     1
102
RTVSPropertyOp5
 70
     1
102
RTVSPropertyOp6
 70
     1
102
RTVSPropertyOp7
 70
     1
102
RTVSPropertyOp8
 70
     1
102
RTVSPropertyOp9
 70
     1
102
RTVSPropertyOp10
 70
     1
102
RTVSPropertyOp11
 70
     1
102
RTVSPropertyOp12
 70
     1
102
RTVSPropertyOp13
 70
     1
102
RTVSPropertyOp14
 70
     1
102
RTVSPropertyOp15
 70
     1
102
RTVSPropertyOp16
 70
     1
102
RTVSPropertyOp17
 70
     1
102
RTVSPropertyOp18
 70
     1
102
RTVSPropertyOp19
 70
     1
102
RTVSPropertyOp20
 70
     1
102
RTVSPropertyOp21
 70
     1
102
RTVSPropertyOp22
 70
     1
102
RTVSPropertyOp23
 70
     1
102
RTVSPropertyOp24
 70
     1
102
RTVSPropertyOp25
 70
     1
102
RTVSPropertyOp26
 70
     1
102
RTVSPropertyOp27
 70
     1
  0
XRECORD
  5
1CE
102
{ACAD_REACTORS
330
1CD
102
}
330
1CD
100
AcDbXrecord
280
     1
102
RTVSPropertyOp0
 70
     1
102
RTVSPropertyOp1
 70
     1
102
RTVSPropertyOp2
 70
     1
102
RTVSPropertyOp3
 70
     1
102
RTVSPropertyOp4
 70
     1
102
RTVSPropertyOp5
 70
     1
102
RTVSPropertyOp6
 70
     1
102
RTVSPropertyOp7
 70
     1
102
RTVSPropertyOp8
 70
     1
102
RTVSPropertyOp9
 70
     1
102
RTVSPropertyOp10
 70
     1
102
RTVSPropertyOp11
 70
     1
102
RTVSPropertyOp12
 70
     1
102
RTVSPropertyOp13
 70
     1
102
RTVSPropertyOp14
 70
     1
102
RTVSPropertyOp15
 70
     1
102
RTVSPropertyOp16
 70
     1
102
RTVSPropertyOp17
 70
     1
102
RTVSPropertyOp18
 70
     1
102
RTVSPropertyOp19
 70
     1
102
RTVSPropertyOp20
 70
     1
102
RTVSPropertyOp21
 70
     1
102
RTVSPropertyOp22
 70
     1
102
RTVSPropertyOp23
 70
     1
102
RTVSPropertyOp24
 70
     1
102
RTVSPropertyOp25
 70
     1
102
RTVSPropertyOp26
 70
     1
102
RTVSPropertyOp27
 70
     1
  0
XRECORD
  5
1D0
102
{ACAD_REACTORS
330
1CF
102
}
330
1CF
100
AcDbXrecord
280
     1
102
RTVSPropertyOp0
 70
     1
102
RTVSPropertyOp1
 70
     1
102
RTVSPropertyOp2
 70
     1
102
RTVSPropertyOp3
 70
     1
102
RTVSPropertyOp4
 70
     1
102
RTVSPropertyOp5
 70
     1
102
RTVSPropertyOp6
 70
     1
102
RTVSPropertyOp7
 70
     1
102
RTVSPropertyOp8
 70
     1
102
RTVSPropertyOp9
 70
     1
102
RTVSPropertyOp10
 70
     1
102
RTVSPropertyOp11
 70
     1
102
RTVSPropertyOp12
 70
     1
102
RTVSPropertyOp13
 70
     1
102
RTVSPropertyOp14
 70
     1
102
RTVSPropertyOp15
 70
     1
102
RTVSPropertyOp16
 70
     1
102
RTVSPropertyOp17
 70
     1
102
RTVSPropertyOp18
 70
     1
102
RTVSPropertyOp19
 70
     1
102
RTVSPropertyOp20
 70
     1
102
RTVSPropertyOp21
 70
     1
102
RTVSPropertyOp22
 70
     1
102
RTVSPropertyOp23
 70
     1
102
RTVSPropertyOp24
 70
     1
102
RTVSPropertyOp25
 70
     1
102
RTVSPropertyOp26
 70
     1
102
RTVSPropertyOp27
 70
     1
  0
XRECORD
  5
1D8
102
{ACAD_REACTORS
330
1D7
102
}
330
1D7
100
AcDbXrecord
280
     1
102
RTVSPropertyOp0
 70
     1
102
RTVSPropertyOp1
 70
     1
102
RTVSPropertyOp2
 70
     1
102
RTVSPropertyOp3
 70
     1
102
RTVSPropertyOp4
 70
     1
102
RTVSPropertyOp5
 70
     1
102
RTVSPropertyOp6
 70
     1
102
RTVSPropertyOp7
 70
     1
102
RTVSPropertyOp8
 70
     1
102
RTVSPropertyOp9
 70
     1
102
RTVSPropertyOp10
 70
     1
102
RTVSPropertyOp11
 70
     1
102
RTVSPropertyOp12
 70
     1
102
RTVSPropertyOp13
 70
     1
102
RTVSPropertyOp14
 70
     1
102
RTVSPropertyOp15
 70
     1
102
RTVSPropertyOp16
 70
     1
102
RTVSPropertyOp17
 70
     1
102
RTVSPropertyOp18
 70
     1
102
RTVSPropertyOp19
 70
     1
102
RTVSPropertyOp20
 70
     1
102
RTVSPropertyOp21
 70
     1
102
RTVSPropertyOp22
 70
     1
102
RTVSPropertyOp23
 70
     1
102
RTVSPropertyOp24
 70
     1
102
RTVSPropertyOp25
 70
     1
102
RTVSPropertyOp26
 70
     1
102
RTVSPropertyOp27
 70
     1
  0
XRECORD
  5
1BC
102
{ACAD_REACTORS
330
1BB
102
}
330
1BB
100
AcDbXrecord
280
     1
102
RTVSPropertyOp0
 70
     1
102
RTVSPropertyOp1
 70
     1
102
RTVSPropertyOp2
 70
     1
102
RTVSPropertyOp3
 70
     1
102
RTVSPropertyOp4
 70
     1
102
RTVSPropertyOp5
 70
     1
102
RTVSPropertyOp6
 70
     1
102
RTVSPropertyOp7
 70
     1
102
RTVSPropertyOp8
 70
     1
102
RTVSPropertyOp9
 70
     1
102
RTVSPropertyOp10
 70
     1
102
RTVSPropertyOp11
 70
     1
102
RTVSPropertyOp12
 70
     1
102
RTVSPropertyOp13
 70
     1
102
RTVSPropertyOp14
 70
     1
102
RTVSPropertyOp15
 70
     1
102
RTVSPropertyOp16
 70
     1
102
RTVSPropertyOp17
 70
     1
102
RTVSPropertyOp18
 70
     1
102
RTVSPropertyOp19
 70
     1
102
RTVSPropertyOp20
 70
     1
102
RTVSPropertyOp21
 70
     1
102
RTVSPropertyOp22
 70
     1
102
RTVSPropertyOp23
 70
     1
102
RTVSPropertyOp24
 70
     1
102
RTVSPropertyOp25
 70
     1
102
RTVSPropertyOp26
 70
     1
102
RTVSPropertyOp27
 70
     1
  0
XRECORD
  5
1BE
102
{ACAD_REACTORS
330
1BD
102
}
330
1BD
100
AcDbXrecord
280
     1
102
RTVSPropertyOp0
 70
     1
102
RTVSPropertyOp1
 70
     1
102
RTVSPropertyOp2
 70
     1
102
RTVSPropertyOp3
 70
     1
102
RTVSPropertyOp4
 70
     1
102
RTVSPropertyOp5
 70
     1
102
RTVSPropertyOp6
 70
     1
102
RTVSPropertyOp7
 70
     1
102
RTVSPropertyOp8
 70
     1
102
RTVSPropertyOp9
 70
     1
102
RTVSPropertyOp10
 70
     1
102
RTVSPropertyOp11
 70
     1
102
RTVSPropertyOp12
 70
     1
102
RTVSPropertyOp13
 70
     1
102
RTVSPropertyOp14
 70
     1
102
RTVSPropertyOp15
 70
     1
102
RTVSPropertyOp16
 70
     1
102
RTVSPropertyOp17
 70
     1
102
RTVSPropertyOp18
 70
     1
102
RTVSPropertyOp19
 70
     1
102
RTVSPropertyOp20
 70
     1
102
RTVSPropertyOp21
 70
     1
102
RTVSPropertyOp22
 70
     1
102
RTVSPropertyOp23
 70
     1
102
RTVSPropertyOp24
 70
     1
102
RTVSPropertyOp25
 70
     1
102
RTVSPropertyOp26
 70
     1
102
RTVSPropertyOp27
 70
     1
  0
XRECORD
  5
1C0
102
{ACAD_REACTORS
330
1BF
102
}
330
1BF
100
AcDbXrecord
280
     1
102
RTVSPropertyOp0
 70
     1
102
RTVSPropertyOp1
 70
     1
102
RTVSPropertyOp2
 70
     1
102
RTVSPropertyOp3
 70
     1
102
RTVSPropertyOp4
 70
     1
102
RTVSPropertyOp5
 70
     1
102
RTVSPropertyOp6
 70
     1
102
RTVSPropertyOp7
 70
     1
102
RTVSPropertyOp8
 70
     1
102
RTVSPropertyOp9
 70
     1
102
RTVSPropertyOp10
 70
     1
102
RTVSPropertyOp11
 70
     1
102
RTVSPropertyOp12
 70
     1
102
RTVSPropertyOp13
 70
     1
102
RTVSPropertyOp14
 70
     1
102
RTVSPropertyOp15
 70
     1
102
RTVSPropertyOp16
 70
     1
102
RTVSPropertyOp17
 70
     1
102
RTVSPropertyOp18
 70
     1
102
RTVSPropertyOp19
 70
     1
102
RTVSPropertyOp20
 70
     1
102
RTVSPropertyOp21
 70
     1
102
RTVSPropertyOp22
 70
     1
102
RTVSPropertyOp23
 70
     1
102
RTVSPropertyOp24
 70
     1
102
RTVSPropertyOp25
 70
     1
102
RTVSPropertyOp26
 70
     1
102
RTVSPropertyOp27
 70
     1
  0
XRECORD
  5
1C2
102
{ACAD_REACTORS
330
1C1
102
}
330
1C1
100
AcDbXrecord
280
     1
102
RTVSPropertyOp0
 70
     1
102
RTVSPropertyOp1
 70
     1
102
RTVSPropertyOp2
 70
     1
102
RTVSPropertyOp3
 70
     1
102
RTVSPropertyOp4
 70
     1
102
RTVSPropertyOp5
 70
     1
102
RTVSPropertyOp6
 70
     1
102
RTVSPropertyOp7
 70
     1
102
RTVSPropertyOp8
 70
     1
102
RTVSPropertyOp9
 70
     1
102
RTVSPropertyOp10
 70
     1
102
RTVSPropertyOp11
 70
     1
102
RTVSPropertyOp12
 70
     1
102
RTVSPropertyOp13
 70
     1
102
RTVSPropertyOp14
 70
     1
102
RTVSPropertyOp15
 70
     1
102
RTVSPropertyOp16
 70
     1
102
RTVSPropertyOp17
 70
     1
102
RTVSPropertyOp18
 70
     1
102
RTVSPropertyOp19
 70
     1
102
RTVSPropertyOp20
 70
     1
102
RTVSPropertyOp21
 70
     1
102
RTVSPropertyOp22
 70
     1
102
RTVSPropertyOp23
 70
     1
102
RTVSPropertyOp24
 70
     1
102
RTVSPropertyOp25
 70
     1
102
RTVSPropertyOp26
 70
     1
102
RTVSPropertyOp27
 70
     1
  0
XRECORD
  5
1D6
102
{ACAD_REACTORS
330
1D5
102
}
330
1D5
100
AcDbXrecord
280
     1
102
RTVSPropertyOp0
 70
     1
102
RTVSPropertyOp1
 70
     1
102
RTVSPropertyOp2
 70
     1
102
RTVSPropertyOp3
 70
     1
102
RTVSPropertyOp4
 70
     1
102
RTVSPropertyOp5
 70
     1
102
RTVSPropertyOp6
 70
     1
102
RTVSPropertyOp7
 70
     1
102
RTVSPropertyOp8
 70
     1
102
RTVSPropertyOp9
 70
     1
102
RTVSPropertyOp10
 70
     1
102
RTVSPropertyOp11
 70
     1
102
RTVSPropertyOp12
 70
     1
102
RTVSPropertyOp13
 70
     1
102
RTVSPropertyOp14
 70
     1
102
RTVSPropertyOp15
 70
     1
102
RTVSPropertyOp16
 70
     1
102
RTVSPropertyOp17
 70
     1
102
RTVSPropertyOp18
 70
     1
102
RTVSPropertyOp19
 70
     1
102
RTVSPropertyOp20
 70
     1
102
RTVSPropertyOp21
 70
     1
102
RTVSPropertyOp22
 70
     1
102
RTVSPropertyOp23
 70
     1
102
RTVSPropertyOp24
 70
     1
102
RTVSPropertyOp25
 70
     1
102
RTVSPropertyOp26
 70
     1
102
RTVSPropertyOp27
 70
     1
  0
XRECORD
  5
1CC
102
{ACAD_REACTORS
330
1CB
102
}
330
1CB
100
AcDbXrecord
280
     1
102
RTVSPropertyOp0
 70
     1
102
RTVSPropertyOp1
 70
     1
102
RTVSPropertyOp2
 70
     1
102
RTVSPropertyOp3
 70
     1
102
RTVSPropertyOp4
 70
     1
102
RTVSPropertyOp5
 70
     1
102
RTVSPropertyOp6
 70
     1
102
RTVSPropertyOp7
 70
     1
102
RTVSPropertyOp8
 70
     1
102
RTVSPropertyOp9
 70
     1
102
RTVSPropertyOp10
 70
     1
102
RTVSPropertyOp11
 70
     1
102
RTVSPropertyOp12
 70
     1
102
RTVSPropertyOp13
 70
     1
102
RTVSPropertyOp14
 70
     1
102
RTVSPropertyOp15
 70
     1
102
RTVSPropertyOp16
 70
     1
102
RTVSPropertyOp17
 70
     1
102
RTVSPropertyOp18
 70
     1
102
RTVSPropertyOp19
 70
     1
102
RTVSPropertyOp20
 70
     1
102
RTVSPropertyOp21
 70
     1
102
RTVSPropertyOp22
 70
     1
102
RTVSPropertyOp23
 70
     1
102
RTVSPropertyOp24
 70
     1
102
RTVSPropertyOp25
 70
     1
102
RTVSPropertyOp26
 70
     1
102
RTVSPropertyOp27
 70
     1
  0
XRECORD
  5
1D4
102
{ACAD_REACTORS
330
1D3
102
}
330
1D3
100
AcDbXrecord
280
     1
102
RTVSPropertyOp0
 70
     1
102
RTVSPropertyOp1
 70
     1
102
RTVSPropertyOp2
 70
     1
102
RTVSPropertyOp3
 70
     1
102
RTVSPropertyOp4
 70
     1
102
RTVSPropertyOp5
 70
     1
102
RTVSPropertyOp6
 70
     1
102
RTVSPropertyOp7
 70
     1
102
RTVSPropertyOp8
 70
     1
102
RTVSPropertyOp9
 70
     1
102
RTVSPropertyOp10
 70
     1
102
RTVSPropertyOp11
 70
     1
102
RTVSPropertyOp12
 70
     1
102
RTVSPropertyOp13
 70
     1
102
RTVSPropertyOp14
 70
     1
102
RTVSPropertyOp15
 70
     1
102
RTVSPropertyOp16
 70
     1
102
RTVSPropertyOp17
 70
     1
102
RTVSPropertyOp18
 70
     1
102
RTVSPropertyOp19
 70
     1
102
RTVSPropertyOp20
 70
     1
102
RTVSPropertyOp21
 70
     1
102
RTVSPropertyOp22
 70
     1
102
RTVSPropertyOp23
 70
     1
102
RTVSPropertyOp24
 70
     1
102
RTVSPropertyOp25
 70
     1
102
RTVSPropertyOp26
 70
     1
102
RTVSPropertyOp27
 70
     1
  0
ENDSEC
  0
EOF
